Адрес РуТрекера для пользователей РФ - MainTracker.org

Расскажи друзьям:  

Пока цветёт папоротник / Серии: 1-13 из 13 (Евгений Бедарев) [2012, фэнтези, комедия, приключения, WEBRip-AVC]

Страницы:  1

Ответить
Автор
Сообщение

Harry Palmer

Top Seed 02* 80r

Стаж: 10 лет 4 месяца

Сообщений: 1262

Harry Palmer · 30-Сен-17 08:15 (11 месяцев назад, ред. 30-Сен-17 08:38)

Пока цветёт папоротник
Год выпуска: 2012
Производство: ИВД Production в сотрудничестве с кинокомпанией "Белый единорог"
Жанр: фентези, комедия, приключения
Продолжительность: 13 x 00:47:00
Субтитры: Нет
Режиссёр: Евгений Бедарев
В ролях: Александр Петров (IX), Татьяна Орлова, Павел Крайнов, Роман Курцын, Светлана Суханова, Алла Подчуфарова, Алексей Васильев (II), Юлия Самойленко, Елена Николаева (II), Сергей Майоров (III), Дмитрий Бедарев, Ольга Юрасова, Александр Никольский (II), Софья Ледовских, Константин Адаев, Алексей Лосихин, Александр Шестопалов, Виктор Мютников, Залим Мирзоев, Александр Мезенцев и др.
Описание: В ту ночь Кирилл проснулся от собственного крика. Его мучили кошмары: мелькали заброшенные колодцы, черные деревья, глаза оборотней и еще что-то невразумительное. «Опять эта ерунда», - подумал Кирилл и подошел к распахнутому окну. Далеко внизу шумела ночная Москва. Воздух был душный и липкий. До 7 июля оставалось несколько дней. Несколько дней, которые отделяли Кирилла от важного события – ночи на Ивана Купалу. Он и не подозревает еще, что буквально завтра окажется в далекой Сибири, что среди вековых кедров и обрывистых скал Алтая его самого, сестру Сашу и нескольких случайных попутчиков закружит водоворот приключений, вынуждая то убегать от погони, то пробираться тайными тропами, то барахтаться среди порогов могучей Катуни! Однако герои даже не могли предположить, что все случившееся с ними – не просто цепь совпадений, а невидимая борьба мистических сил. Разве могли обычные туристы, дети цивилизованного мира понять, что они уже давно оказались в зачарованном и таинственном месте, где реальность не подчиняется обычным законам? Теперь, чтобы спастись от опасности, найти друг друга и выйти живыми из схватки с неведомыми силами, у героев остается слишком мало времени! Всего несколько часов, пока не настанет ночь на Ивана Купалу и не зацветет волшебный папоротник! Тот самый сказочный цветок, который позволяет видеть клады под землей, читать мысли людей и повелевать духами.
Реклама: Нет
Все раздачи сериала: Пока цветёт папоротник
Сэмпл: http://multi-up.com/1170029
Качество: WEBRip-AVC
Формат: MKV
Видео кодек: H.264
Аудио кодек: AC3
Видео: MPEG-4 (AVC), 1024x576, 25 fps, ~1800 kbps, 0.12 bit/pixel
Аудио: AC3, 48.0 kHz, 2 ch, 192 Kbps
MI
General
Unique ID : 202853309569761690004596330583557942842 (0x989C2056A0E46CF1BA9F0E16C37C2E3A)
Complete name : Пока цветёт папоротник (01 сер.).mkv
Format : Matroska
Format version : Version 2
File size : 678 MiB
Duration : 47 min 33 s
Overall bit rate : 1 994 kb/s
Encoded date : UTC 2017-08-04 18:14:03
Writing application : mkvmerge v7.8.0 ('River Man') 32bit built on Apr 3 2015 12:11:22
Writing library : libebml v1.3.1 + libmatroska v1.4.2
Video
ID : 1
Format : AVC
Format/Info : Advanced Video Codec
Format profile : High@L3.1
Format settings, CABAC : Yes
Format settings, ReFrames : 4 frames
Codec ID : V_MPEG4/ISO/AVC
Duration : 47 min 33 s
Bit rate : 1 800 kb/s
Width : 1 024 pixels
Height : 576 pixels
Display aspect ratio : 16:9
Frame rate mode : Constant
Frame rate : 25.000 FPS
Color space : YUV
Chroma subsampling : 4:2:0
Bit depth : 8 bits
Scan type : Progressive
Bits/(Pixel*Frame) : 0.122
Stream size : 599 MiB (88%)
Writing library : x264 core 146 r2538 121396c
Encoding settings : cabac=1 / ref=3 / deblock=1:0:0 / analyse=0x3:0x113 / me=umh / subme=7 / psy=1 / psy_rd=1.00:0.00 / mixed_ref=1 / me_range=16 / chroma_me=1 / trellis=1 / 8x8dct=1 / cqm=0 / deadzone=21,11 / fast_pskip=1 / chroma_qp_offset=-2 / threads=4 / lookahead_threads=1 / sliced_threads=0 / nr=0 / decimate=1 / interlaced=0 / bluray_compat=0 / stitchable=1 / constrained_intra=0 / bframes=3 / b_pyramid=2 / b_adapt=1 / b_bias=0 / direct=1 / weightb=1 / open_gop=0 / weightp=2 / keyint=250 / keyint_min=25 / scenecut=40 / intra_refresh=0 / rc_lookahead=40 / rc=2pass / mbtree=1 / bitrate=1800 / ratetol=1.0 / qcomp=0.60 / qpmin=0 / qpmax=69 / qpstep=4 / cplxblur=20.0 / qblur=0.5 / ip_ratio=1.40 / aq=1:1.00
Default : Yes
Forced : No
Audio
ID : 2
Format : AC-3
Format/Info : Audio Coding 3
Format settings, Endianness : Big
Codec ID : A_AC3
Duration : 47 min 33 s
Bit rate mode : Constant
Bit rate : 192 kb/s
Channel(s) : 2 channels
Channel positions : Front: L R
Sampling rate : 48.0 kHz
Frame rate : 31.250 FPS (1536 spf)
Bit depth : 16 bits
Compression mode : Lossy
Stream size : 65.3 MiB (10%)
Service kind : Complete Main
Default : Yes
Forced : No
Скриншоты
Download
Чтобы скачать .torrent файл необходима регистрация
Сайт не распространяет и не хранит электронные версии произведений, а лишь предоставляет доступ к создаваемому пользователями каталогу ссылок на торрент-файлы, которые содержат только списки хеш-сумм
[Профиль]  [ЛС] 
 

Harry Palmer

Top Seed 02* 80r

Стаж: 10 лет 4 месяца

Сообщений: 1262

Harry Palmer · 30-Сен-17 08:17 (спустя 1 мин.)

[Цитировать] 

Рип без логотипа телеканала и всплывающей рекламы.
Сравнение с SATRip-AVC: http://screenshotcomparison.com/comparison/118798
[Профиль]  [ЛС] 

Shuo Cao Cao Cao Cao dao

Стаж: 1 год 6 месяцев

Сообщений: 131

Shuo Cao Cao Cao Cao dao · 05-Окт-17 01:57 (спустя 4 дня)

[Цитировать] 

А что там слышно про второй сезон?
[Профиль]  [ЛС] 

igsva

Стаж: 9 лет 5 месяцев

Сообщений: 88

igsva · 26-Ноя-17 01:54 (спустя 1 месяц 20 дней, ред. 26-Ноя-17 01:54)

[Цитировать] 

Ну наконец-то,хоть какой-то,но СТЕРЕО звук - спасибо!
Очень нравится этот сериал.
Народ,не подскажете,где можно найти этот сериал со СТЕРЕО (о 5.1 даже и не заикаюсь) звуком и HD (1280х720) видео? (FHD , конечно же,было бы лучше,но и HD нормально).
Заранее благодарю.
Автору данной раздачи - спасибо.
[Профиль]  [ЛС] 

ANDREIKA57

Стаж: 6 лет 11 месяцев

Сообщений: 23

ANDREIKA57 · 27-Ноя-17 23:31 (спустя 1 день 21 час, ред. 28-Ноя-17 05:07)

[Цитировать] 

Фильм как бы и неплох но у этого режисёра, Евгения Бедарева, ну точно Бе-з-дарев, сплошные пьянки в фильме. А Петров Александр чё за наркотики употребляет???
[Профиль]  [ЛС] 

Ночной Проспект

Стаж: 9 месяцев

Сообщений: 4


Ночной Проспект · 30-Апр-18 23:21 (спустя 5 месяцев 2 дня)

[Цитировать] 

Откуда WEBRip-AVC взялся ? И WEB-DL 1080p будет ?
[Профиль]  [ЛС] 

agent78

Стаж: 6 лет 9 месяцев

Сообщений: 17


agent78 · 03-Май-18 16:13 (спустя 2 дня 16 часов)

[Цитировать] 

дрянь редкая.несоветую.
[Профиль]  [ЛС] 

igsva

Стаж: 9 лет 5 месяцев

Сообщений: 88

igsva · 17-Май-18 05:27 (спустя 13 дней, ред. 17-Май-18 05:27)

[Цитировать] 

Ночной Проспект писал(а):
75274284Откуда WEBRip-AVC взялся ? И WEB-DL 1080p будет ?
Всё-таки нашел я способ скачать этот сериал в FHD (без всяких логотипов канала) и 2.0 (действительно стерео) звуком. (моё сообщение чуть выше , от 26.11.17)
С сайта "Кинопоиск" при помощи программы «Internet Download Manager».
(комменты в этой теме читаю крайне редко,если что → пишите в ЛС)
Удачи.
[Профиль]  [ЛС] 

haker 222

Стаж: 6 лет 8 месяцев

Сообщений: 6


haker 222 · 10-Июл-18 16:46 (спустя 1 месяц 24 дня, ред. 10-Июл-18 16:46)

[Цитировать] 

Спасибо,за качественные контент.
[Профиль]  [ЛС] 

Han Jae Hun

Стаж: 6 месяцев

Сообщений: 13

Han Jae Hun · 11-Июл-18 17:50 (спустя 1 день 1 час, ред. 11-Июл-18 17:50)

[Цитировать] 

Shuo Cao Cao Cao Cao dao писал(а):
73957894А что там слышно про второй сезон?
Слышал, что этим летом должен выйти. Только название будет "Беловодье". Так это или нет, увидим, лето уже началось.
Вот трейлер:
[Профиль]  [ЛС] 
 
Ответить
Loading...
Error