Адрес РуТрекера для пользователей РФ - MainTracker.org

Расскажи друзьям:  

Нюхач-3 / Серии: 1-8 из 8 (Артем Литвиненко) [2017, детектив, WEBRip]

Страницы:  1

Ответить
Автор
Сообщение

Jason Parker

Лауреат конкурса

Стаж: 4 года 10 месяцев

Сообщений: 4597

Jason Parker · 03-Окт-17 13:42 (6 месяцев назад, ред. 06-Окт-17 12:19)

Нюхач-3
Год выпуска: 2017
Производство: Украина, Pronto Film, Film.UA, Foundland pictures
Жанр: детектив
Продолжительность: ~ 00:48:00
Субтитры: нет
Режиссёр: Артем Литвиненко
В ролях: Кирилл Кяро, Иван Оганесян, Николай Чиндяйкин, Мария Аниканова, Агне Грудите, Нина Гогаева, Мария Трепикова, Тамбет Туйск, Катрин Пярн, Маркус Двиньянинов, Тийт Лиллеорг
Описание: Для Нюхача не существует тайн и безнадежных преступлений, ведь в первую же минуту знакомства он готов рассказать о любом человеке абсолютно все. Но у этого дара есть обратная сторона: Нюхач абсолютно беззащитен перед окружающим миром. Он не умеет строить отношения с людьми. Ему невозможно сделать сюрприз, его нельзя обмануть, любой посторонний запах оттолкнет его от самого романтического свидания. У него сложная, но интересная жизнь...
Релиз:
Реклама: Нет
Все раздачи сериала
Сэмпл
Качество: WEBRip
Формат: AVI
Видео кодек: XVID
Аудио кодек: AC3
Видео: XVID build 73, 720х400, 25fps, ~1600 Kbps, 0,227 Bits/Pixel
Аудио: AC3, 48KHz, 2 ch, 192 Kbps
MI
General
Complete name : E:\Nyuhach.3.2017.WEB-DLRip.Files-x\01.Nyuhach.3.2017.WEB-DLRip.Files-x.avi
Format : AVI
Format/Info : Audio Video Interleave
File size : 650 MiB
Duration : 49mn 24s
Overall bit rate : 1 839 Kbps
Writing application : VirtualDubMod 1.5.10.3 | www.virtualdub-fr.org || (build 2550/release)
Writing library : VirtualDubMod build 2550/release
Video
ID : 0
Format : MPEG-4 Visual
Format profile : Advanced Simple@L5
Format settings, BVOP : 1
Format settings, QPel : No
Format settings, GMC : No warppoints
Format settings, Matrix : Custom
Codec ID : XVID
Codec ID/Hint : XviD
Duration : 49mn 24s
Bit rate : 1 637 Kbps
Width : 720 pixels
Height : 400 pixels
Display aspect ratio : 16:9
Frame rate : 25.000 fps
Color space : YUV
Chroma subsampling : 4:2:0
Bit depth : 8 bits
Scan type : Progressive
Compression mode : Lossy
Bits/(Pixel*Frame) : 0.227
Stream size : 578 MiB (89%)
Writing library : XviD 73
Audio
ID : 1
Format : AC-3
Format/Info : Audio Coding 3
Mode extension : CM (complete main)
Format settings, Endianness : Big
Codec ID : 2000
Duration : 49mn 24s
Bit rate mode : Constant
Bit rate : 192 Kbps
Channel(s) : 2 channels
Channel positions : Front: L R
Sampling rate : 48.0 KHz
Compression mode : Lossy
Stream size : 67.9 MiB (10%)
Alignment : Split accross interleaves
Interleave, duration : 40 ms (1.00 video frame)
Interleave, preload duration : 500 ms
Скриншоты
Download
Чтобы скачать .torrent файл необходима регистрация
Сайт не распространяет и не хранит электронные версии произведений, а лишь предоставляет доступ к создаваемому пользователями каталогу ссылок на торрент-файлы, которые содержат только списки хеш-сумм
[Профиль]  [ЛС] 
 

Fox_new

Стаж: 7 лет 5 месяцев

Сообщений: 194

Fox_new · 04-Окт-17 09:27 (спустя 19 часов)

[Цитировать] 

Периодичность выхода серий?
[Профиль]  [ЛС] 

ALYHKA

Стаж: 9 лет 6 месяцев

Сообщений: 84


ALYHKA · 04-Окт-17 21:36 (спустя 12 часов)

[Цитировать] 

Спасибо, не знала, что снимали 3-й сезон...
[Профиль]  [ЛС] 

starce8e

Стаж: 8 лет 1 месяц

Сообщений: 118


starce8e · 07-Окт-17 17:26 (спустя 2 дня 19 часов)

[Цитировать] 

Пустое кино. Нет причинно- следственных связей. Много надуманного.
[Профиль]  [ЛС] 

a1oha

Стаж: 8 лет 1 месяц

Сообщений: 68


a1oha · 11-Окт-17 23:06 (спустя 4 дня)

[Цитировать] 

Баблгам - обертка красивая, пахнет ярко, но полезных веществ и КБЖУ ноль. )
[Профиль]  [ЛС] 

Сладкоежкина

Стаж: 7 лет 7 месяцев

Сообщений: 112

Сладкоежкина · 12-Окт-17 18:34 (спустя 19 часов)

[Цитировать] 

Спасибо! Душевно. Виды в фильме бесподобные!
[Профиль]  [ЛС] 

крас

Стаж: 7 лет 8 месяцев

Сообщений: 37

крас · 22-Окт-17 15:44 (спустя 9 дней)

[Цитировать] 

а будет 4 сезон?
[Профиль]  [ЛС] 

ser-ver100

Стаж: 9 лет 2 месяца

Сообщений: 6


ser-ver100 · 05-Ноя-17 23:09 (спустя 14 дней)

[Цитировать] 

украинский шлак.такого дерьма ни кому не пожелаешь смотреть.жуткая дешевка и пародия на американский ''ОБМАНИ МЕНЯ''.Ну такой укро-шлак только майданутым правосекам в качестве премии за скакание усердное....
[Профиль]  [ЛС] 

konst1998

Top Bonus 01* 300GB

Стаж: 9 лет 1 месяц

Сообщений: 883

konst1998 · 14-Ноя-17 17:21 (спустя 8 дней)

[Цитировать] 

Мне очень понравился третий сезон. Первые серии стилизованы под интеллектуальный детектив, в последней много драк и т. п.
Конечно оценивать сериал как полнометражный фильм нельзя, другой жанр. Но мне кажется, что третий сезон снят на уровне.
[Профиль]  [ЛС] 

Nord5980

Стаж: 7 лет 3 месяца

Сообщений: 267

Nord5980 · 07-Фев-18 20:56 (спустя 2 месяца 23 дня, ред. 07-Фев-18 20:56)

[Цитировать] 

Вполне прилично. Красивый сериал. Посмешили в последней серии переходы, когда дерутся профессионалы, а компьютерщик со стариком - чисто Киса с отцом Фёдором (ещё и за ухо укусил). Жаль, что КГБ сюда всунули. Интересно: долго ещё такая мода будет продолжаться? Такие структуры во всех странах были, есть и будут.
Будет ли 4-й сезон? Раздающему спасибо.
[Профиль]  [ЛС] 

carometr

Стаж: 9 лет 8 месяцев

Сообщений: 23

carometr · 15-Апр-18 20:51 (спустя 2 месяца 7 дней)

[Цитировать] 

Правда шлак. Без относительно национальности. Актеры сильные, а снялись в дерьме.
[Профиль]  [ЛС] 
 
Ответить
Loading...
Error