Адрес РуТрекера для пользователей РФ - MainTracker.org

Расскажи друзьям:  

Нюхач-3 / Серии: 1-8 из 8 (Артем Литвиненко) [2017, детектив, HDTVRip 720p]

Страницы:  1

Ответить
Автор
Сообщение

Jason Parker

Лауреат конкурса

Стаж: 5 лет 3 месяца

Сообщений: 4659

Jason Parker · 05-Окт-17 15:28 (11 месяцев назад, ред. 06-Окт-17 14:46)

Нюхач-3
Год выпуска: 2017
Производство: Украина, Pronto Film, Film.UA, Foundland pictures
Жанр: детектив
Продолжительность: ~ 00:48:00
Субтитры: нет
Режиссёр: Артем Литвиненко
В ролях: Кирилл Кяро, Иван Оганесян, Николай Чиндяйкин, Мария Аниканова, Агне Грудите, Нина Гогаева, Мария Трепикова, Тамбет Туйск, Катрин Пярн, Маркус Двиньянинов, Тийт Лиллеорг
Описание: Для Нюхача не существует тайн и безнадежных преступлений, ведь в первую же минуту знакомства он готов рассказать о любом человеке абсолютно все. Но у этого дара есть обратная сторона: Нюхач абсолютно беззащитен перед окружающим миром. Он не умеет строить отношения с людьми. Ему невозможно сделать сюрприз, его нельзя обмануть, любой посторонний запах оттолкнет его от самого романтического свидания. У него сложная, но интересная жизнь...
Релиз: by olegka7373
Реклама: Нет
Все раздачи сериала
Сэмпл
Качество: HDTVRip 720p
Формат: MKV
Видео кодек: H.264
Аудио кодек: AC3
Видео: MPEG-4 AVC, 1280х720 ,25fps, ~3500 Kbps, 0,152 Bits/Pixel
Аудио: AC3, 48KHz, 2 ch, 192 Kbps
MI
General
Unique ID : 220483249786619007157857849913983462105 (0xA5DF87803431B7FEA3F59A953B496AD9)
Complete name : E:\Nyuhach.3.HDTVRip.(720p).GeneralFilm\01.Nyuhach.3.HDTVRip.(720p).GeneralFilm.mkv
Format : Matroska
Format version : Version 2
File size : 1.25 GiB
Duration : 48mn 16s
Overall bit rate : 3 694 Kbps
Encoded date : UTC 2017-10-02 16:39:11
Writing application : mkvmerge v6.1.0 ('Old Devil') built on Mar 4 2013 09:10:42
Writing library : libebml v1.3.0 + libmatroska v1.4.0
Video
ID : 1
Format : AVC
Format/Info : Advanced Video Codec
Format profile : High@L4.1
Format settings, CABAC : Yes
Format settings, ReFrames : 9 frames
Codec ID : V_MPEG4/ISO/AVC
Duration : 48mn 16s
Bit rate : 3 500 Kbps
Width : 1 280 pixels
Height : 720 pixels
Display aspect ratio : 16:9
Frame rate mode : Constant
Frame rate : 25.000 fps
Color space : YUV
Chroma subsampling : 4:2:0
Bit depth : 8 bits
Scan type : Progressive
Bits/(Pixel*Frame) : 0.152
Stream size : 1.16 GiB (93%)
Writing library : x264 core 130 r2273 b3065e6
Encoding settings : cabac=1 / ref=9 / deblock=1:-2:-1 / analyse=0x3:0x133 / me=umh / subme=9 / psy=1 / psy_rd=1.00:0.15 / mixed_ref=1 / me_range=32 / chroma_me=1 / trellis=2 / 8x8dct=1 / cqm=0 / deadzone=21,11 / fast_pskip=0 / chroma_qp_offset=-3 / threads=18 / lookahead_threads=3 / sliced_threads=0 / nr=0 / decimate=0 / interlaced=0 / bluray_compat=0 / constrained_intra=0 / bframes=9 / b_pyramid=2 / b_adapt=2 / b_bias=0 / direct=1 / weightb=1 / open_gop=0 / weightp=2 / keyint=250 / keyint_min=25 / scenecut=40 / intra_refresh=0 / rc=2pass / mbtree=0 / bitrate=3500 / ratetol=1.0 / qcomp=0.60 / qpmin=0 / qpmax=69 / qpstep=4 / cplxblur=20.0 / qblur=0.5 / ip_ratio=1.40 / pb_ratio=1.30 / aq=2:1.00
Default : Yes
Forced : No
Color range : Limited
Color primaries : BT.709
Transfer characteristics : BT.709
Matrix coefficients : BT.709
Audio
ID : 2
Format : AC-3
Format/Info : Audio Coding 3
Mode extension : CM (complete main)
Format settings, Endianness : Big
Codec ID : A_AC3
Duration : 48mn 16s
Bit rate mode : Constant
Bit rate : 192 Kbps
Channel(s) : 2 channels
Channel positions : Front: L R
Sampling rate : 48.0 KHz
Compression mode : Lossy
Stream size : 66.3 MiB (5%)
Default : Yes
Forced : No
Скриншоты
Download
Чтобы скачать .torrent файл необходима регистрация
Сайт не распространяет и не хранит электронные версии произведений, а лишь предоставляет доступ к создаваемому пользователями каталогу ссылок на торрент-файлы, которые содержат только списки хеш-сумм
[Профиль]  [ЛС] 
 

Дынин

Стаж: 6 лет 10 месяцев

Сообщений: 13


Дынин · 08-Окт-17 01:38 (спустя 2 дня 10 часов)

[Цитировать] 

в 5-ой серии на 47.50 не вырезана 1 минута тв-рекламы.
[Профиль]  [ЛС] 

alexx-72

Стаж: 10 лет 4 месяца

Сообщений: 40

alexx-72 · 08-Окт-17 13:03 (спустя 11 часов)

[Цитировать] 

Полная хрень. Эстонский стерильный колорит, полный идиотских абсурдов и плевков в КГБ. Непонятно, зачем в Украинском сериале актеры говорят на русском языке. И зачем 1 канал покупает это?
[Профиль]  [ЛС] 

shelest-zvezd

Стаж: 3 года 9 месяцев

Сообщений: 67


shelest-zvezd · 25-Ноя-17 21:30 (спустя 1 месяц 17 дней)

[Цитировать] 

Сидыыы, аууууу, вы где?
[Профиль]  [ЛС] 

Andy Garsia

Top User 01

Стаж: 10 лет 6 месяцев

Сообщений: 106

Andy Garsia · 21-Июн-18 22:12 (спустя 6 месяцев)

[Цитировать] 

alexx-72 писал(а):
73977582Полная хрень. Эстонский стерильный колорит, полный идиотских абсурдов и плевков в КГБ. Непонятно, зачем в Украинском сериале актеры говорят на русском языке. И зачем 1 канал покупает это?
А именно потому, что это 1 канал. Не знали?
[Профиль]  [ЛС] 
 
Ответить
Loading...
Error