Адрес РуТрекера для пользователей РФ - MainTracker.org

Расскажи друзьям:  

Воспитание и выгул собак и мужчин / Серии: 1-2 из 2 (Александр Грабарь) [2017, мелодрама, WEBRip 1080p]

Страницы:  1

Ответить
Автор
Сообщение

Pigy

RG Русские сериалы

Стаж: 9 лет 8 месяцев

Сообщений: 2386

Pigy · 08-Окт-17 00:13 (9 месяцев назад)

Воспитание и выгул собак и мужчин
Год выпуска: 2017
Производство: ООО Энерджи Фильм», ЭйБиСи ФИЛЬМ УКРАИНА, ABC Film
Жанр: мелодрама
Продолжительность: ~00:47:00 серия
Субтитры: нет
Режиссёр: Александр Грабарь
В ролях: Дана Абызова, Илья Алексеев, Михаил Полицеймако, Алексей Смолка, Александр Наумов, Евгения Нохрина, Нина Нижерадзе, Лев Сомов, Антонина Макарчук, Марина Анисович, Любовь Тимошевская, Ольга Радчук, Роман Соболевский
Описание: Соня – талантливый ветеринар. Её кредо: чем больше узнаю мужчин, тем больше люблю собак, поэтому в личных отношениях – замкнута, застегнута «на все пуговицы». Соню со скандалом увольняют из ветеринарной клиники. Теперь она подрабатывает выгулом собак и помогает приюту для бездомных животных. Артем, обаятельный мажористый раздолбай, звезда спорта. Восстанавливается после спортивной травмы и пытается сдать нормативы, но у него ничего не получается. Тому, что Артема «списывают на берег», очень рада его «вечная невеста» Юля. Она надеется, что теперь он наконец-то женится на ней. А Артем сгоряча дарит ей щенка, чтобы она училась хоть о ком-то заботиться. Юля обижается и уходит жить к отцу, а Артем вынужден сам возиться с собакой, на прогулке с которой и происходит знакомство с Соней.

Реклама: Нет.
Кинопоиск
Все раздачи сериала
Sample
Качество: WEBRip 1080p - Olyanchik
Формат: MKV
Видео кодек: H.264
Аудио кодек: AC3
Видео: MPEG4 AVC Video, H264, 16:9, 1920x1080, 25 fps, ~3200 kbps, 0.062 bit/pixel
Аудио: AC3 Dolby Digital, 44,1 kHz, 2/0 (L,R) ch, 192 kbps
MI
General
Unique ID : 213020336998672874106993822133281357099 (0xA042397E010E9CE48B8E45A765CFFD2B)
Complete name : D:\Vospitanie.i.vygul.sobak.i.muzhchin.2017.WEB-DL.(1080p).kinozal.by.Olyanchik\01.Vospitanie.i.vygul.sobak.i.muzhchin.2017.WEB-DL.(1080p).kinozal.by.Olyanchik.mkv
Format : Matroska
Format version : Version 4 / Version 2
File size : 1.14 GiB
Duration : 47mn 19s
Overall bit rate : 3 457 Kbps
Encoded date : UTC 2017-10-06 16:06:37
Writing application : mkvmerge v9.6.0 ('Slave To Your Mind') 64bit
Writing library : libebml v1.3.4 + libmatroska v1.4.5
DURATION : 00:47:19.441000000
NUMBER_OF_FRAMES : 81523
NUMBER_OF_BYTES : 68146572
_STATISTICS_WRITING_APP : mkvmerge v9.6.0 ('Slave To Your Mind') 64bit
_STATISTICS_WRITING_DATE_UTC : 2017-10-06 16:06:37
_STATISTICS_TAGS : BPS DURATION NUMBER_OF_FRAMES NUMBER_OF_BYTES
Video
ID : 1
Format : AVC
Format/Info : Advanced Video Codec
Format profile : High@L4.0
Format settings, CABAC : Yes
Format settings, ReFrames : 2 frames
Codec ID : V_MPEG4/ISO/AVC
Duration : 47mn 19s
Bit rate : 3 196 Kbps
Width : 1 920 pixels
Height : 1 080 pixels
Display aspect ratio : 16:9
Frame rate mode : Constant
Frame rate : 25.000 fps
Color space : YUV
Chroma subsampling : 4:2:0
Bit depth : 8 bits
Scan type : Progressive
Bits/(Pixel*Frame) : 0.062
Stream size : 1.06 GiB (92%)
Default : Yes
Forced : No
Color primaries : BT.709
Transfer characteristics : BT.709
Matrix coefficients : BT.709
Audio
ID : 2
Format : AC-3
Format/Info : Audio Coding 3
Mode extension : CM (complete main)
Format settings, Endianness : Big
Codec ID : A_AC3
Duration : 47mn 19s
Bit rate mode : Constant
Bit rate : 192 Kbps
Channel count : 2 channels
Channel positions : Front: L R
Sampling rate : 44.1 KHz
Bit depth : 16 bits
Compression mode : Lossy
Stream size : 65.0 MiB (6%)
Default : Yes
Forced : No
Скриншоты
Download
Чтобы скачать .torrent файл необходима регистрация
Сайт не распространяет и не хранит электронные версии произведений, а лишь предоставляет доступ к создаваемому пользователями каталогу ссылок на торрент-файлы, которые содержат только списки хеш-сумм
[Профиль]  [ЛС] 
 

Музыкальная Фея

Стаж: 8 лет 11 месяцев

Сообщений: 1353

Музыкальная Фея · 11-Июл-18 19:07 (спустя 9 месяцев, ред. 11-Июл-18 19:07)

[Цитировать] 

Большое СПАСИБО Вам, Pigy, за ОТЛИЧНОЕ Качество Фильма!!!
Простенький ДОБРЫЙ ЛЁГКИЙ ФИЛЬМ ДЛЯ ОТДЫХА!!! Люблю фильмы про животных.
ПОТРЯСАЮЩЕ - Очень ИСКРЕННО играет симпатичная Дана Абызова (Талантливая актриса!) роль ветеринара (Соня Котова) , которая по-настоящему очень любит свою профессию, собак и вообще всех животных! ВОСХИЩЕНА!!!
[Профиль]  [ЛС] 

ArkArk00

Стаж: 6 лет 9 месяцев

Сообщений: 91


ArkArk00 · 14-Июл-18 11:31 (спустя 2 дня 16 часов)

[Цитировать] 

Очень приятный фильм. Рекомендую всем, кто любит просто хорошие фильмы, без потаенного смысла.
[Профиль]  [ЛС] 
 
Ответить
Loading...
Error