Адрес РуТрекера для пользователей РФ - 11.MainTracker.org

Расскажи друзьям:  

Бегущая от любви / Серии: 1-30 из 30 (Наталья Углицких) [2017, Мелодрама, HDTVRip]

Страницы:  1

Ответить
Автор
Сообщение

Сибиряк777

Top Seed 05* 640r

Стаж: 10 лет 2 месяца

Сообщений: 3022

Сибиряк777 · 10-Окт-17 18:15 (1 год 1 месяц назад, ред. 03-Ноя-17 16:38)

Бегущая от любви
Год выпуска: 2017
Производство: Россия, Ink Film
Жанр: Мелодрама
Продолжительность: 00:43:14
Субтитры: нет
Режиссёр: Наталья Углицких
В ролях: Екатерина Вуличенко, Вячеслав Манучаров, Алексей Барабаш, Любовь Германова, Валерий Новиков, Валерий Афанасьев, Виталий Герасимов, Иван Добронравов, Александра Булычёва, Наталья Рогожкина, Павел Артемьев, Анна Михайловская, Владимир Носик, Анна Кирина, Мария Гузеева
Описание: В Краснокаменске есть своя достопримечательность – шоколадная фабрика, одна из первых начавшая производить шоколад по своим уникальным рецептам. Полина Алексеева - потомственный кондитер, работает на фабрике главным технологом. У нее прекрасная дочь Катя, но воспитывает она ее одна. И хотя мать Полины пытается устроить личную жизнь дочери, организует ей свидания, но напрасно. Полина давно разочаровалась в любви. В городке и в жизни Полины все идет своим чередом, пока здесь не появляется Виктор Панков (Вячеслав Манучаров) – ее бывший сосед. Панков работал механиком на судне и несколько лет провел в плену у пиратов. Он сразу же занимает важное место в жизни Полины, но она не решается поверить в его чувства…
Все раздачи сериала / Сэмпл
Релиз группа:
Качество: HDTVRip
Формат: AVI
Видео кодек: XviD
Аудио кодек: AC3
Видео: 720x400 (16:9), 25.000 fps, XviD build 73, 1572 Kbps, 0.21 Bits/Pixel
Аудио: 48 kHz, AC3 Dolby Digital, 2 ch, 192 Kbps
Реклама: Нет
MI
General
Complete name : Downloads\Бегущая от любви.2015.HDTVRip.Files-x
Format : AVI
Format/Info : Audio Video Interleave
File size : 549 MiB
Duration : 43mn 14s
Overall bit rate : 1 774 Kbps
Writing application : VirtualDubMod 1.5.10.3 | www.virtualdub-fr.org || (build 2550/release)
Writing library : VirtualDubMod build 2550/release
Video #0
ID : 0
Format : MPEG-4 Visual
Format profile : Advanced [email protected]
Format settings, BVOP : 1
Format settings, QPel : No
Format settings, GMC : No warppoints
Format settings, Matrix : Custom
Codec ID : XVID
Codec ID/Hint : XviD
Duration : 43mn 14s
Bit rate : 1 572 Kbps
Width : 720 pixels
Height : 400 pixels
Display aspect ratio : 16:9
Frame rate : 25.000 fps
Color space : YUV
Chroma subsampling : 4:2:0
Bit depth : 8 bits
Scan type : Progressive
Compression mode : Lossy
Bits/(Pixel*Frame) : 0.218
Stream size : 486 MiB (89%)
Writing library : XviD 73
Audio #1
ID : 1
Format : AC-3
Format/Info : Audio Coding 3
Mode extension : CM (complete main)
Format settings, Endianness : Big
Codec ID : 2000
Duration : 43mn 14s
Bit rate mode : Constant
Bit rate : 192 Kbps
Channel(s) : 2 channels
Channel positions : Front: L R
Sampling rate : 48.0 KHz
Bit depth : 16 bits
Compression mode : Lossy
Stream size : 59.4 MiB (11%)
Alignment : Split accross interleaves
Interleave, duration : 40 ms (1.00 video frame)
Interleave, preload duration : 500 ms
Скриншоты
Внимание! Раздача ведётся путём добавления новых серий:
(1) остановить скачивание,
(2) удалить старый торрент у себя из клиента (старые серии удалять не надо),
(3) скачать новый торрент и запустить его у себя в клиенте вместо старого, при этом указать клиенту путь в старую папку куда и должно происходить скачивание новых серий.
Ваш клиент при этом должен произвести хеширование (проверку) старой папки (если не производит сам - помогите ему сделать это), и будет докачивать только те серии которых у вас ещё нет. Старые серии при этом не удаляются, а продолжают раздаваться!
Eсли вы уже удалили старые серии, то предотвратить повторную закачку старых серий можно, отжав галочку в соответсвующих местах при запуске нового торрента. По возможности, желательно не удалять старые серии как можно дольше чтобы релизёр не столько продолжал раздавать старые серии, а смог сконцентрироваться на новых
.
Download
Чтобы скачать .torrent файл необходима регистрация
Сайт не распространяет и не хранит электронные версии произведений, а лишь предоставляет доступ к создаваемому пользователями каталогу ссылок на торрент-файлы, которые содержат только списки хеш-сумм
[Профиль]  [ЛС] 
 

XShura

Стаж: 9 лет 7 месяцев

Сообщений: 1


XShura · 01-Ноя-17 21:22 (спустя 22 дня)

[Цитировать] 

А дальше?
[Профиль]  [ЛС] 

Маруся-лиса

Стаж: 8 лет 6 месяцев

Сообщений: 32

Маруся-лиса · 20-Ноя-17 10:44 (спустя 18 дней)

[Цитировать] 

как-то странно закончился сериал!ничего не слышно может ждать продолжения?
[Профиль]  [ЛС] 

1surinam

Стаж: 6 лет 8 месяцев

Сообщений: 145


1surinam · 07-Дек-18 01:23 (спустя 1 год)

[Цитировать] 

А чего она от любви бежит?
[Профиль]  [ЛС] 
 
Ответить
Loading...
Error