Физрук / Сезон: 4 / Серии: 1-16 из 16 (Игорь Волошин) [2017, Комедия, WEBRip 720p]

Страницы:  1

Ответить
Автор
Сообщение

IronUltra

Top Seed 03* 160r

Стаж: 7 лет

Сообщений: 862

IronUltra · 11-Окт-17 11:47 (1 год назад, ред. 30-Дек-17 14:21)

Физрук
Год выпуска: 2017
Производство: Россия, Good Story Media
Жанр: Комедия
Продолжительность: ~ 00:24:00 / Серия
Субтитры: нет
Режиссёр: Игорь Волошин
В ролях: Дмитрий Нагиев, Александр Гордон (II), Полина Гренц, Анастасия Панина, Владимир Сычёв, Даниил Вахрушев, Андрей Крыжний, Артур Сопельник, Оксана Сидоренко, Карина Мишулина, Роман Индык, Елена Муравьёва, Евгений Кулаков, Виктория Клинкова, Екатерина Мельник, Ян Цапник, Екатерина Айсина, Наталья Коренная, Варвара Богданова, Мария Киселёва (II), Иван Мудров, Дмитрий Гогу, Владимир Жеребцов, Владимир Епископосян, Сергей Серов, Сергей Журавлёв, Любовь Германова, Борис Клюев, Дмитрий Власкин, Екатерина Шукшина
Описание: В четвёртом сезоне главный физрук страны вернётся не в школу, а в театр. Физруку Фоме придётся спасать театр города Железногородска от Банкротства. Туда его приведёт неизменное чувство справедливости и родственные связи. Руководителем провинциального театра, находящегося на грани упадка, является его биологический отец Эрнест Петрович Шиловский. Театр собирается прибрать к рукам местный чиновник, чтобы построить на его месте самый обычный торговый центр. Фоме придётся сделать всё, чтобы помочь отцу спасти его детище.
Все раздачи сериала
Сэмпл
Релиз-группа: TorpedoUK от OlLanDGroup / Без рекламы
Качество: WEBRip 720p
Формат: mkv
Видео кодек: MPEG-4 AVC
Аудио кодек: AC3
Видео: 1280x720 (16:9), 25 fps, MPEG-4 AVC ~3 500 kbps avg, 0.151 bit/pixel
Аудио: 48 KHz, AC3, 2 ch, ~192.00 kbps avg
Внимание! Раздача ведётся путём добавления новых серий
Раздача ведётся путём добавления новых серий, при каждом добавлении создаётся новый торрент. Чтобы начать докачку новой серии, пользователям необходимо сделать следующее:
- Остановить скачивание.
- Удалить старый торрент у себя из клиента (старые серии удалять не надо).
- Скачать новый торрент и запустить его у себя в клиенте вместо старого, при этом указать клиенту путь в старую папку куда и должно происходить скачивание новых серий.
Ваш клиент при этом должен произвести хеширование (проверку) старой папки (если не производит сам - помогите ему сделать это), и будет докачивать только те серии которых у вас ещё нет. Старые серии при этом не удаляются, а продолжают раздаваться!
Если вы уже удалили старые серии, то предотвратить повторную закачку старых серий можно, отжав галочку в соответствующих местах при запуске нового торрента. По возможности, желательно не удалять старые серии как можно дольше, чтобы релизер не столько продолжал раздавать старые серии, а смог сконцентрироваться на новых.
MI
Общее
Уникальный идентификатор : 227852114311443837297706933373158993292 (0xAB6AB8926F9A98D084B40A825226AD8C)
Полное имя : D:\Торрент\Fizruk.2017.S04.WEB-DL(720p).OlLanDGroup\Fizruk.2017.S04.E01.WEB-DL(720p).OlLanDGroup.mkv
Формат : Matroska
Версия формата : Version 2
Размер файла : 652 Мбайт
Продолжительность : 24 м. 3 с.
Общий поток : 3787 Кбит/сек
Дата кодирования : UTC 2017-10-10 16:21:09
Программа кодирования : mkvmerge v7.8.0 ('River Man') 32bit built on Apr 3 2015 12:11:22
Библиотека кодирования : libebml v1.3.1 + libmatroska v1.4.2
Видео
Идентификатор : 1
Формат : AVC
Формат/Информация : Advanced Video Codec
Профиль формата : [email protected]
Параметр CABAC формата : Да
Параметр ReFrames формата : 1 кадр
Параметр GOP формата : M=1, N=12
Идентификатор кодека : V_MPEG4/ISO/AVC
Продолжительность : 24 м. 3 с.
Битрейт : 3519 Кбит/сек
Ширина : 1280 пикселей
Высота : 720 пикселей
Соотношение сторон : 16:9
Режим частоты кадров : Постоянный
Частота кадров : 25,000 кадров/сек
Стандарт вещания : Component
Цветовое пространство : YUV
Субдискретизация насыщенности : 4:2:0
Битовая глубина : 8 бит
Тип развёртки : Прогрессивная
Бит/(Пиксели*Кадры) : 0.153
Размер потока : 606 Мбайт (93%)
Default : Да
Forced : Нет
Цветовой диапазон : Limited
Аудио
Идентификатор : 2
Формат : AC-3
Формат/Информация : Audio Coding 3
Расширение режима : CM (complete main)
Параметр Endianness формата : Big
Идентификатор кодека : A_AC3
Продолжительность : 24 м. 3 с.
Вид битрейта : Постоянный
Битрейт : 192 Кбит/сек
Каналы : 2 канала
Расположение каналов : Front: L R
Частота : 48,0 КГц
Частота кадров : 31,250 кадров/сек (1536 spf)
Битовая глубина : 16 бит
Метод сжатия : С потерями
Размер потока : 33,0 Мбайт (5%)
Default : Да
Forced : Нет
Скриншоты

Сравнение с http://1.maintracker.org/forum/viewtopic.php?t=5465032 http://screenshotcomparison.com/comparison/120441/picture:0



Сообщения из этой темы [5 шт.] были выделены в отдельную тему REXNN52 [id: 11162675] (0)
Сударыня
Download
Чтобы скачать .torrent файл необходима регистрация
Сайт не распространяет и не хранит электронные версии произведений, а лишь предоставляет доступ к создаваемому пользователями каталогу ссылок на торрент-файлы, которые содержат только списки хеш-сумм
[Профиль]  [ЛС] 
 

BBDragon

Консольщик

Стаж: 11 лет 1 месяц

Сообщений: 2494

BBDragon · 12-Окт-17 20:42 (спустя 1 день 8 часов)

[Цитировать] 

IronUltra
Спасибо огромное! 4-ую серию как скоро ожидать?
[Профиль]  [ЛС] 

Fukaeri

Стаж: 3 года

Сообщений: 287

Fukaeri · 16-Окт-17 22:36 (спустя 4 дня, ред. 18-Окт-17 02:34)

[Цитировать] 

Перезапуск проекта, можно сказать, таки состоялся... Хотя сомнения на этот счет были: а стоит ли продолжать историю о физруке, который давно никаким боком не физрук, и которая 100%-но закончилась, причем очень логично и изящно? Но над этой киносагой, очевидно - как и в свое время над "Интернами" - реет какой-то благословляющий её ангел-хранитель В руках нового режиссера Игоря Волошина она ожила снова
[Профиль]  [ЛС] 

Desant3

Стаж: 8 лет 4 месяца

Сообщений: 1


Desant3 · 21-Окт-17 15:40 (спустя 4 дня)

[Цитировать] 

Все раздача мертва? Обновляться будет?
[Профиль]  [ЛС] 

IronUltra

Top Seed 03* 160r

Стаж: 7 лет

Сообщений: 862

IronUltra · 26-Окт-17 13:28 (спустя 4 дня)

[Цитировать] 

//12


Сообщения из этой темы [5 шт.] были выделены в отдельную тему REXNN52 [id: 11162675] (0)
Сударыня
[Профиль]  [ЛС] 

Сударыня

Moderator gray

Стаж: 11 лет 5 месяцев

Сообщений: 11063

Сударыня · 08-Янв-18 11:48 (спустя 2 месяца 12 дней)

[Цитировать] 

IronUltra писал(а):
74509611и прошу изменить статус на нормальный.
Так настроек программы всё равно нет.
[Профиль]  [ЛС] 

jd3

Стаж: 11 лет 11 месяцев

Сообщений: 452


jd3 · 11-Апр-18 00:01 (спустя 3 месяца 2 дня)

[Цитировать] 

Fukaeri писал(а):
74031453Перезапуск проекта, можно сказать, таки состоялся... Хотя сомнения на этот счет были: а стоит ли продолжать историю о физруке, который давно никаким боком не физрук, и которая 100%-но закончилась, причем очень логично и изящно? Но над этой киносагой, очевидно - как и в свое время над "Интернами" - реет какой-то благословляющий её ангел-хранитель В руках нового режиссера Игоря Волошина она ожила снова
Ты ебнутый? Сезон - параша, как и предыдущие два.
[Профиль]  [ЛС] 

Fukaeri

Стаж: 3 года

Сообщений: 287

Fukaeri · 04-Май-18 00:14 (спустя 23 дня, ред. 04-Май-18 00:14)

[Цитировать] 

jd3 писал(а):
75153328
Fukaeri писал(а):
74031453Перезапуск проекта, можно сказать, таки состоялся... Хотя сомнения на этот счет были: а стоит ли продолжать историю о физруке, который давно никаким боком не физрук, и которая 100%-но закончилась, причем очень логично и изящно? Но над этой киносагой, очевидно - как и в свое время над "Интернами" - реет какой-то благословляющий её ангел-хранитель В руках нового режиссера Игоря Волошина она ожила снова
Ты ебнутый? Сезон - параша, как и предыдущие два.
Обращаю внимание модератора раздела: данный "комментарий" на моё мнение о фильме висит здесь уже месяц, но его автор нисколечки не забанен на форуме и по-прежнему иожет оставлять везде свои помойные автографы! Отчего такая нерасторопность? Он что, на особом положении, этот jd3
[Профиль]  [ЛС] 
 
Ответить
Loading...
Error