Адрес РуТрекера для пользователей РФ - MainTracker.org

Расскажи друзьям:  

Rihanna feat. Drake - Work (Tim Erem Version) [2016, Master, 1080p]

Страницы:  1

Ответить
Автор
Сообщение

Zidris

Стаж: 6 лет 1 месяц

Сообщений: 78

Zidris · 12-Окт-17 23:50 (7 месяцев назад)

Rihanna feat. Drake - Work (Tim Erem Version)
Жанр: Hip Hop, R&B
Продолжительность: 00.03.36
Год выпуска: 2016
Качество: Master
Разрешение видео/развертка: 1080p
Контейнер: MOV
Видео кодек: ProRes
Аудио кодек: PCM
Видео: APCN, 1920*1080p, 111 Mbps, 23,976 fps
Аудио: PCM, 1411,2 kb/s, 44,1 KHz, 2 channels
Отчёт MediaInfo / BDInfo
Общее
Полное имя : E:\Rihanna feat. Drake - Work Tim Erem Version.mov
Формат : MPEG-4
Профиль формата : QuickTime
Идентификатор кодека : qt 2005.03 (qt )
Размер файла : 2,83 Гбайт
Продолжительность : 3 м. 36 с.
Режим общего битрейта : Переменный
Общий поток : 112 Мбит/сек
Название фильма : 292406_208
Дата кодирования : UTC 2016-06-28 08:33:43
Дата пометки : UTC 2016-06-28 08:33:58
Библиотека кодирования : Apple QuickTime
com.apple.quicktime.title : 292406_208
com.apple.quicktime.player.movie.audio.g : 7.7.6 (Dev)
com.apple.quicktime.player.movie.audio.t : 7.7.6 (1680.95.31)
com.apple.quicktime.player.movie.visual. : (Binary)
Видео
Идентификатор : 1
Формат : ProRes
Версия формата : Version 0
Профиль формата : 422
Идентификатор кодека : apcn
Продолжительность : 3 м. 36 с.
Вид битрейта : Переменный
Битрейт : 111 Мбит/сек
Ширина : 1920 пикселей
Высота : 1080 пикселей
Соотношение сторон : 16:9
Режим частоты кадров : Постоянный
Частота кадров : 23,976 (24000/1001) кадра/сек
Цветовое пространство : YUV
Субдискретизация насыщенности : 4:2:2
Тип развёртки : Прогрессивная
Бит/(Пиксели*Кадры) : 2.227
Размер потока : 2,79 Гбайт (99%)
Библиотека кодирования : Apple
Дата кодирования : UTC 2016-02-26 02:07:31
Дата пометки : UTC 2016-06-28 08:33:58
Основные цвета : BT.709
Характеристики трансфера : BT.709
Коэффициенты матрицы : BT.709
Аудио
Идентификатор : 4
Формат : PCM
Параметр Endianness формата : Little
Параметр Sign формата : Signed
Идентификатор кодека : sowt
Продолжительность : 3 м. 36 с.
Вид битрейта : Постоянный
Битрейт : 1411,2 Кбит/сек
Каналы : 2 канала
Расположение каналов : Front: L R
Частота : 44,1 КГц
Битовая глубина : 16 бит
Размер потока : 36,4 Мбайт (1%)
Язык : English
Дата кодирования : UTC 2016-06-28 08:33:33
Дата пометки : UTC 2016-06-28 08:33:58
Прочее
Идентификатор : 3
Тип : Time code
Формат : QuickTime TC
Продолжительность : 3 м. 36 с.
Временной код первого кадра : 00:00:00:00
Временной код, чередующийся : Да
Дата кодирования : UTC 2016-02-26 02:07:31
Дата пометки : UTC 2016-06-28 08:33:58
Вид битрейта : CBR
Скриншоты
Download
Чтобы скачать .torrent файл необходима регистрация
Сайт не распространяет и не хранит электронные версии произведений, а лишь предоставляет доступ к создаваемому пользователями каталогу ссылок на торрент-файлы, которые содержат только списки хеш-сумм
[Профиль]  [ЛС] 
 
 
Ответить
Loading...
Error