Адрес РуТрекера для пользователей РФ - MainTracker.org

Расскажи друзьям:  

Nicki Minaj - Lookin Ass NI**A [2014, MasterRip, 1080p]

Страницы:  1

Ответить
Автор
Сообщение

Zidris

Стаж: 6 лет 1 месяц

Сообщений: 78

Zidris · 02-Ноя-17 15:02 (6 месяцев назад)

Nicki Minaj - Lookin Ass NI**A
Жанр: Rap, Hip-hop, R&B
Продолжительность: 00.02.50
Год выпуска: 2014
Качество: MasterRip
Разрешение видео/развертка: 1080p
Контейнер: MOV
Видео кодек: AVC
Аудио кодек: PCM
Видео: AVC, 1920*1080p, 40,3 Mbps, 23.976 fps
Аудио: PCM, 1536 kb/s, 48.0 KHz, 2 channels
Отчёт MediaInfo / BDInfo
Общее
Полное имя : E:\Nicki Minaj - Lookin Ass.mov
Формат : MPEG-4
Профиль формата : QuickTime
Идентификатор кодека : qt 2005.03 (qt )
Размер файла : 848 Мбайт
Продолжительность : 2 м. 50 с.
Общий поток : 41,8 Мбит/сек
Дата кодирования : UTC 2014-02-12 18:49:56
Дата пометки : UTC 2014-02-12 19:00:22
Библиотека кодирования : Apple QuickTime
Видео
Идентификатор : 2
Формат : AVC
Формат/Информация : Advanced Video Codec
Профиль формата : Main@L5
Параметр CABAC формата : Нет
Параметр RefFrames формата : 2 кадра
Параметр GOP формата : M=2, N=24
Идентификатор кодека : avc1
Идентификатор кодека/Информация : Advanced Video Coding
Продолжительность : 2 м. 50 с.
Duration_FirstFrame : -7 мс.
Duration_LastFrame : -2 мс.
Битрейт : 40,3 Мбит/сек
Ширина : 1920 пикселей
Высота : 1080 пикселей
Соотношение сторон : 16:9
Режим частоты кадров : Постоянный
Частота кадров : 23,976 (23976/1000) кадра/сек
Цветовое пространство : YUV
Субдискретизация насыщенности : 4:2:0
Битовая глубина : 8 бит
Тип развёртки : Прогрессивная
Бит/(Пиксели*Кадры) : 0.810
Размер потока : 816 Мбайт (96%)
Язык : English
Дата кодирования : UTC 2014-02-12 19:00:03
Дата пометки : UTC 2014-02-12 19:00:22
Цветовой диапазон : Limited
Основные цвета : BT.709
Характеристики трансфера : BT.709
Коэффициенты матрицы : BT.709
Аудио
Идентификатор : 1
Формат : PCM
Параметр Endianness формата : Little
Параметр Sign формата : Signed
Идентификатор кодека : sowt
Продолжительность : 2 м. 50 с.
Вид битрейта : Постоянный
Битрейт : 1536 Кбит/сек
Каналы : 2 канала
Расположение каналов : Front: L R
Частота : 48,0 КГц
Битовая глубина : 16 бит
Размер потока : 31,1 Мбайт (4%)
Язык : English
Дата кодирования : UTC 2014-02-12 19:00:03
Дата пометки : UTC 2014-02-12 19:00:22
Скриншоты
Download
Чтобы скачать .torrent файл необходима регистрация
Сайт не распространяет и не хранит электронные версии произведений, а лишь предоставляет доступ к создаваемому пользователями каталогу ссылок на торрент-файлы, которые содержат только списки хеш-сумм
[Профиль]  [ЛС] 
 

anbelk27

Admin

Стаж: 9 лет 1 месяц

Сообщений: 5660

anbelk27 · 05-Ноя-17 11:00 (спустя 2 дня 19 часов)

[Цитировать] 

Zidris писал(а):
74141612Параметр CABAC формата : Нет
[Профиль]  [ЛС] 
 
Ответить
Loading...
Error