Адрес РуТрекера для пользователей РФ - 11.MainTracker.org

Расскажи друзьям:  

Бегущая от любви / Серии: 1-30 из 30 (Наталья Углицких) [2017, мелодрама, HDTVRip 720p]

Страницы:  1

Ответить
Автор
Сообщение

Pigy

RG Русские сериалы

Стаж: 10 лет 1 месяц

Сообщений: 3737

Pigy · 03-Ноя-17 18:27 (1 год 1 месяц назад)

Бегущая от любви
Год выпуска: 2017
Производство: Ink Film
Жанр: мелодрама
Продолжительность: ~00:43:00 серия
Субтитры: нет
Режиссёр: Наталья Углицких
В ролях: Екатерина Вуличенко, Вячеслав Манучаров, Алексей Барабаш, Любовь Германова, Валерий Новиков, Валерий Афанасьев, Виталий Герасимов, Иван Добронравов, Александра Булычёва, Наталья Рогожкина, Павел Артемьев, Анна Михайловская, Владимир Носик, Анна Кирина, Мария Гузеева

Описание: В Краснокаменске есть своя достопримечательность – шоколадная фабрика, одна из первых начавшая производить шоколад по своим уникальным рецептам. Полина Алексеева - потомственный кондитер, работает на фабрике главным технологом. У нее прекрасная дочь Катя, но воспитывает она ее одна. И хотя мать Полины пытается устроить личную жизнь дочери, организует ей свидания, но напрасно. Полина давно разочаровалась в любви. В городке и в жизни Полины все идет своим чередом, пока здесь не появляется Виктор Панков (Вячеслав Манучаров) – ее бывший сосед. Панков работал механиком на судне и несколько лет провел в плену у пиратов. Он сразу же занимает важное место в жизни Полины, но она не решается поверить в его чувства…

Реклама: Нет.
Кинопоиск
Все раздачи сериала
Sample
Качество: HDTVRip 720p - olegka7373 (GeneralFilm)
Формат: MKV
Видео кодек: H.264
Аудио кодек: AC3
Видео: MPEG4 AVC Video, H264, 16:9, 1280x720, 25 fps, ~3500 kbps, 0.152 bit/pixel
Аудио: AC3 Dolby Digital, 48 kHz, 2/0 (L,R) ch, 192 kbps
MI
General
Unique ID : 213215347971546747920878885986812787932 (0xA067C846868AFC54B2F5D838484B7CDC)
Complete name : D:\Begushhaja ot ljubvi.HDTVRip.(720p).GeneralFilm\01.Begushhaja ot ljubvi.HDTVRip.(720p).GeneralFilm.mkv
Format : Matroska
Format version : Version 2
File size : 1.12 GiB
Duration : 43mn 14s
Overall bit rate : 3 694 Kbps
Encoded date : UTC 2017-10-10 20:08:56
Writing application : mkvmerge v6.1.0 ('Old Devil') built on Mar 4 2013 09:10:42
Writing library : libebml v1.3.0 + libmatroska v1.4.0
Video
ID : 1
Format : AVC
Format/Info : Advanced Video Codec
Format profile : [email protected]
Format settings, CABAC : Yes
Format settings, ReFrames : 9 frames
Codec ID : V_MPEG4/ISO/AVC
Duration : 43mn 14s
Bit rate : 3 500 Kbps
Width : 1 280 pixels
Height : 720 pixels
Display aspect ratio : 16:9
Frame rate mode : Constant
Frame rate : 25.000 fps
Color space : YUV
Chroma subsampling : 4:2:0
Bit depth : 8 bits
Scan type : Progressive
Bits/(Pixel*Frame) : 0.152
Stream size : 1.04 GiB (93%)
Writing library : x264 core 130 r2273 b3065e6
Encoding settings : cabac=1 / ref=9 / deblock=1:-2:-1 / analyse=0x3:0x133 / me=umh / subme=9 / psy=1 / psy_rd=1.00:0.15 / mixed_ref=1 / me_range=32 / chroma_me=1 / trellis=2 / 8x8dct=1 / cqm=0 / deadzone=21,11 / fast_pskip=0 / chroma_qp_offset=-3 / threads=18 / lookahead_threads=3 / sliced_threads=0 / nr=0 / decimate=0 / interlaced=0 / bluray_compat=0 / constrained_intra=0 / bframes=9 / b_pyramid=2 / b_adapt=2 / b_bias=0 / direct=1 / weightb=1 / open_gop=0 / weightp=2 / keyint=250 / keyint_min=25 / scenecut=40 / intra_refresh=0 / rc=2pass / mbtree=0 / bitrate=3500 / ratetol=1.0 / qcomp=0.60 / qpmin=0 / qpmax=69 / qpstep=4 / cplxblur=20.0 / qblur=0.5 / ip_ratio=1.40 / pb_ratio=1.30 / aq=2:1.00
Default : Yes
Forced : No
Color primaries : BT.709
Transfer characteristics : BT.709
Matrix coefficients : BT.709
Audio
ID : 2
Format : AC-3
Format/Info : Audio Coding 3
Mode extension : CM (complete main)
Format settings, Endianness : Big
Codec ID : A_AC3
Duration : 43mn 14s
Bit rate mode : Constant
Bit rate : 192 Kbps
Channel count : 2 channels
Channel positions : Front: L R
Sampling rate : 48.0 KHz
Bit depth : 16 bits
Compression mode : Lossy
Stream size : 59.4 MiB (5%)
Default : Yes
Forced : No
Скриншоты
Download
Чтобы скачать .torrent файл необходима регистрация
Сайт не распространяет и не хранит электронные версии произведений, а лишь предоставляет доступ к создаваемому пользователями каталогу ссылок на торрент-файлы, которые содержат только списки хеш-сумм
[Профиль]  [ЛС] 
 

Rising-76

Стаж: 8 лет 8 месяцев

Сообщений: 122

Rising-76 · 22-Май-18 18:42 (спустя 6 месяцев)

[Цитировать] 

Сюжет интересный,но очень затянут,из 30 серий можно оставить 5
[Профиль]  [ЛС] 

1surinam

Стаж: 6 лет 8 месяцев

Сообщений: 145


1surinam · 07-Дек-18 01:25 (спустя 6 месяцев)

[Цитировать] 

А Вуличенко ничего так...хорошая актриса
[Профиль]  [ЛС] 
 
Ответить
Loading...
Error