Адрес РуТрекера для пользователей РФ - 11.MainTracker.org

Расскажи друзьям:  

Спецы / Серии: 1-20 из 20 (Олег Масленников) [2017, Детектив, WEBRip 1080p]

Страницы:  1

Ответить
Автор
Сообщение

TRECA

Moderator

Стаж: 11 лет 1 месяц

Сообщений: 3385

TRECA · 07-Ноя-17 13:13 (1 год 4 месяца назад, ред. 23-Ноя-17 15:32)

Спецы
Год выпуска: 2017
Производство: Россия, Украина / Кинокомпания ­«StarMedia»
Жанр: Детектив
Продолжительность: ~ 00:45:00
Субтитры: нет
Режиссёр: Олег Масленников
В ролях: Алексей Морозов, Яна Соболевская, Игорь Петрусенко, Дмитрий Чернов (II), Виталий Салий, Константин Корецкий, Сергей Солодов, Наталья Доля, Ольга Сторожук, Александр Мельник (II), Роман Выскребенцев, Ирина Авдеенко
Описание: Начальник Экспертно-криминалистической лаборатории МВД Андрей Макаров - настоящий спец. Вместе со своими подчиненными - экспертом Ройзманом, компьютерщиком Стасом Кимом и молоденькой практиканткой Лесей Бильчак он выезжает на места преступлений в составе оперативно-следственной бригады, в которую также входят оперативники угро Киценко, Щеглов и следователь Богдана Ковальская. Год назад Макарова отстранили от расследования смерти девушки, в которой был замешан депутатский сынок Кушнир. А месяц назад произошло убийство сестры Макарова Ирины, которое списали на обычное ограбление. Макаров уверен, что это было преднамеренное преступление, и он полон решимости найти убийцу.
Все раздачи сериала / сэмпл
Релиз группа:
Качество: WEBRip (1080p)
Формат: MKV
Видео кодек: MPEG-4
Аудио кодек: AC3
Видео: 1920x1080 (16:9), 25 fps, MPEG-4 AVC, ~2 600 kbps avg, 0.152 bit/pixel
Аудио: 48 KHz, AC3, 2 ch, ~192.00 kbps avg (русский)
Реклама: Нет (чистый рип)
MI
General
Unique ID : 192709933314061661123486216505150673816 (0x90FA95470702A3AFA9D88050469C1398)
Complete name : F:\ФИЛЬМЫ\Specy.2017.WEBDL(1080p)\01.Specy.2017.WEB-DL(1080p).OlLanDGroup.mkv
Format : Matroska
Format version : Version 2
File size : 860 MiB
Duration : 42 min 37 s
Overall bit rate : 2 819 kb/s
Encoded date : UTC 2017-11-06 19:10:48
Writing application : mkvmerge v7.8.0 ('River Man') 32bit built on Apr 3 2015 12:11:22
Writing library : libebml v1.3.1 + libmatroska v1.4.2
Video
ID : 1
Format : AVC
Format/Info : Advanced Video Codec
Format profile : [email protected]
Format settings, CABAC : Yes
Format settings, ReFrames : 2 frames
Codec ID : V_MPEG4/ISO/AVC
Duration : 42 min 37 s
Bit rate : 2 571 kb/s
Width : 1 920 pixels
Height : 1 080 pixels
Display aspect ratio : 16:9
Frame rate mode : Constant
Frame rate : 25.000 FPS
Color space : YUV
Chroma subsampling : 4:2:0
Bit depth : 8 bits
Scan type : Progressive
Bits/(Pixel*Frame) : 0.050
Stream size : 784 MiB (91%)
Default : Yes
Forced : No
Color range : Limited
Color primaries : BT.709
Transfer characteristics : BT.709
Matrix coefficients : BT.709
Audio
ID : 2
Format : AC-3
Format/Info : Audio Coding 3
Format settings, Endianness : Big
Codec ID : A_AC3
Duration : 42 min 37 s
Bit rate mode : Constant
Bit rate : 192 kb/s
Channel(s) : 2 channels
Channel positions : Front: L R
Sampling rate : 48.0 kHz
Frame rate : 31.250 FPS (1536 spf)
Bit depth : 16 bits
Compression mode : Lossy
Stream size : 58.5 MiB (7%)
Service kind : Complete Main
Default : Yes
Forced : No
Скриншоты
Внимание! Раздача ведётся путём добавления новых серий:
(1) остановить скачивание,
(2) удалить старый торрент у себя из клиента (старые серии удалять не надо),
(3) скачать новый торрент и запустить его у себя в клиенте вместо старого, при этом указать клиенту путь в старую папку куда и должно происходить скачивание новых серий.
Ваш клиент при этом должен произвести хеширование (проверку) старой папки (если не производит сам - помогите ему сделать это), и будет докачивать только те серии которых у вас ещё нет. Старые серии при этом не удаляются, а продолжают раздаваться!
Eсли вы уже удалили старые серии, то предотвратить повторную закачку старых серий можно, отжав галочку в соответсвующих местах при запуске нового торрента. По возможности, желательно не удалять старые серии как можно дольше чтобы релизёр не столько продолжал раздавать старые серии, а смог сконцентрироваться на новых
.
Время раздачи: 24/7 до первых 5 скачавших
[email protected] aka
Download
Чтобы скачать .torrent файл необходима регистрация
Сайт не распространяет и не хранит электронные версии произведений, а лишь предоставляет доступ к создаваемому пользователями каталогу ссылок на торрент-файлы, которые содержат только списки хеш-сумм
[Профиль]  [ЛС] 
 

Сударыня

Moderator

Стаж: 11 лет 11 месяцев

Сообщений: 11389

Сударыня · 07-Ноя-17 13:22 (спустя 9 мин.)

[Цитировать] 

TRECA писал(а):
Заменила ссылку на все раздачи сериала на эту http://1.maintracker.org/forum/tracker.php?nm=%D0%A1%D0%BF%D0%B5%D1%86%D1%8B%20%D0%9E...0%BA%D0%BE%D0%B2
[Профиль]  [ЛС] 

TRECA

Moderator

Стаж: 11 лет 1 месяц

Сообщений: 3385

TRECA · 07-Ноя-17 13:27 (спустя 5 мин., ред. 07-Ноя-17 13:27)

[Цитировать] 

Сударыня
Большое Спасибо за помощь.....! Как у Вас это получилось?
Не поверите пробовал сделать.... не бьётся сериал через поиск ( и это уже не первый раз), хотя в моих раздачах и на трекере отображается....
Ооо, а теперь отбился без проблем....мистика однако....
[Профиль]  [ЛС] 

Сударыня

Moderator

Стаж: 11 лет 11 месяцев

Сообщений: 11389

Сударыня · 07-Ноя-17 13:34 (спустя 6 мин.)

[Цитировать] 

TRECA писал(а):
74175712Как у Вас это получилось?
Подождала немного и ссылка появилась
Не поверите пробовал сделать.... не бьётся сериал через поиск ( и это уже не первый раз), хотя в моих раздачах и на трекере отображается....
Иногда глюки, а иногда ссылка не сразу появляется, надо подождать несколько минут.
[Профиль]  [ЛС] 

TRECA

Moderator

Стаж: 11 лет 1 месяц

Сообщений: 3385

TRECA · 07-Ноя-17 13:51 (спустя 17 мин., ред. 08-Ноя-17 01:33)

[Цитировать] 

Сударыня
Раздача обновлена.
Добавлены 3-4 серии.
Всем приятного просмотра
[Профиль]  [ЛС] 

TRECA

Moderator

Стаж: 11 лет 1 месяц

Сообщений: 3385

TRECA · 10-Ноя-17 19:06 (спустя 3 дня)

[Цитировать] 

Раздача обновлена.
Добавлены 5-8 серии.
Всем приятного просмотра
[Профиль]  [ЛС] 

TRECA

Moderator

Стаж: 11 лет 1 месяц

Сообщений: 3385

TRECA · 14-Ноя-17 10:04 (спустя 3 дня, ред. 16-Ноя-17 15:51)

[Цитировать] 

Раздача обновлена.
Добавлены 9-10 серии.
Всем приятного просмотра
Раздача обновлена.
Добавлены 11-12 серии.
Всем приятного просмотра
Раздача обновлена.
Добавлены 13-14 серии.
Всем приятного просмотра
[Профиль]  [ЛС] 

TRECA

Moderator

Стаж: 11 лет 1 месяц

Сообщений: 3385

TRECA · 18-Ноя-17 02:50 (спустя 3 дня)

[Цитировать] 

Раздача обновлена.
Добавлены 15-16 серии.
Всем приятного просмотра
[Профиль]  [ЛС] 

TRECA

Moderator

Стаж: 11 лет 1 месяц

Сообщений: 3385

TRECA · 23-Ноя-17 15:33 (спустя 5 дней)

[Цитировать] 

Раздача обновлена.
Добавлены заключительные 17-20 серии.
Сезон окончен.
Всем приятного просмотра
[Профиль]  [ЛС] 

_Александрович_

Стаж: 5 лет 8 месяцев

Сообщений: 8


_Александрович_ · 29-Ноя-17 08:27 (спустя 5 дней)

[Цитировать] 

Будет ли продолжение?
[Профиль]  [ЛС] 

vida-vidok

Стаж: 5 лет 7 месяцев

Сообщений: 85

vida-vidok · 15-Мар-19 11:09 (спустя 1 год 3 месяца)

[Цитировать] 

Концовка смазана. 20 серий к финалу на пять минут? Ооо, это круто )))
Незавершённость - это неуважение к зрителю.
Резюме: Начало и окончание полная ...
[Профиль]  [ЛС] 
 
Ответить
Loading...
Error