Адрес РуТрекера для пользователей РФ - MainTracker.org

Расскажи друзьям:  

Alicia Keys • Baloise Session [2017, R'n'B, Soul, HDTV, 720p]

Страницы:  1

Ответить
Автор
Сообщение

meloman67

Moderator

Стаж: 9 лет 3 месяца

Сообщений: 5577

meloman67 · 09-Дек-17 18:17 (7 месяцев назад, ред. 10-Дек-17 14:18)


Alicia Keys


Жанр: R'n'B, Soul
Продолжительность: 01:04:24
Год выпуска: 2017
Качество: HDTV
Разрешение видео/развертка: 720p
Контейнер: TS
Видео кодек: H.264
Аудио кодек: AC3, MP2
Видео: MPEG4 Video (H264) 1280x720 50fps 8 888 kb/s
Аудио: Dolby AC3 48000Hz 6ch 448kbps
Аудио: MPEG Audio 48000Hz stereo 192kbps
Треклист
01. 28 Thousand Days
02. You Don't Know My Name
03. Try Sleeping With A Broken Heart
04. Unbreakable
05. Pawn It All
06. Superwoman
07. How Come U Don't Call Me Anymore (Prince Cover)
08. Kill Your Mama
09. Blended Family (What You Do For Love)
10. If I Ain't Got You
11. Fallin'
12. In Common
13. Girl On Fire
14. No One
15. Empire State Of Mind, Part II: Broken Down
16. Illusion Of Bliss
Отчёт MediaInfo / BDInfo
General
ID : 1019 (0x3FB)
Complete name : E:\Alicia Keys - Baloise Session 2017.ts
Format : MPEG-TS
File size : 4.70 GiB
Duration : 1 h 4 min
Overall bit rate mode : Variable
Overall bit rate : 10.4 Mb/s
Video
ID : 5111 (0x13F7)
Menu ID : 10302 (0x283E)
Format : AVC
Format/Info : Advanced Video Codec
Format profile : High@L4
Format settings, CABAC : Yes
Format settings, RefFrames : 4 frames
Format settings, GOP : M=8, N=32
Codec ID : 27
Duration : 1 h 4 min
Bit rate : 8 888 kb/s
Width : 1 280 pixels
Height : 720 pixels
Display aspect ratio : 16:9
Frame rate : 50.000 FPS
Color space : YUV
Chroma subsampling : 4:2:0
Bit depth : 8 bits
Scan type : Progressive
Bits/(Pixel*Frame) : 0.193
Stream size : 4.00 GiB (85%)
Audio #1
ID : 5112 (0x13F8)
Menu ID : 10302 (0x283E)
Format : MPEG Audio
Format version : Version 1
Format profile : Layer 2
Codec ID : 3
Duration : 1 h 4 min
Bit rate mode : Constant
Bit rate : 192 kb/s
Channel(s) : 2 channels
Sampling rate : 48.0 kHz
Compression mode : Lossy
Delay relative to video : 50 ms
Stream size : 88.4 MiB (2%)
Language : German
Audio #2
ID : 5113 (0x13F9)
Menu ID : 10302 (0x283E)
Format : MPEG Audio
Format version : Version 1
Format profile : Layer 2
Codec ID : 3
Duration : 1 h 4 min
Bit rate mode : Constant
Bit rate : 192 kb/s
Channel(s) : 2 channels
Sampling rate : 48.0 kHz
Compression mode : Lossy
Delay relative to video : 50 ms
Stream size : 88.4 MiB (2%)
Language : French
Audio #3
ID : 5116 (0x13FC)
Menu ID : 10302 (0x283E)
Format : AC-3
Format/Info : Audio Coding 3
Format settings, Endianness : Big
Codec ID : 6
Duration : 1 h 4 min
Bit rate mode : Constant
Bit rate : 448 kb/s
Channel(s) : 6 channels
Channel positions : Front: L C R, Side: L R, LFE
Sampling rate : 48.0 kHz
Frame rate : 31.250 FPS (1536 SPF)
Bit depth : 16 bits
Compression mode : Lossy
Delay relative to video : 94 ms
Stream size : 206 MiB (4%)
Language : Multiple languages
Service kind : Complete Main
Audio #4
ID : 5117 (0x13FD)
Menu ID : 10302 (0x283E)
Format : MPEG Audio
Format version : Version 1
Format profile : Layer 2
Codec ID : 3
Duration : 1 h 4 min
Bit rate mode : Constant
Bit rate : 192 kb/s
Channel(s) : 2 channels
Sampling rate : 48.0 kHz
Compression mode : Lossy
Delay relative to video : 10 ms
Stream size : 88.4 MiB (2%)
Other
ID : 5114 (0x13FA)-100
Menu ID : 10302 (0x283E)
Format : Teletext
Language : German
Download
Чтобы скачать .torrent файл необходима регистрация
Сайт не распространяет и не хранит электронные версии произведений, а лишь предоставляет доступ к создаваемому пользователями каталогу ссылок на торрент-файлы, которые содержат только списки хеш-сумм
[Профиль]  [ЛС] 
 

miledisys

Стаж: 3 года 8 месяцев

Сообщений: 9

miledisys · 17-Мар-18 12:04 (спустя 3 месяца 7 дней)

[Цитировать] 

крутой концерт.....последняя песня вообще полный улет........
[Профиль]  [ЛС] 
 
Ответить
Loading...
Error