Убить Сталина / Сезон: 1 / Серии: 1-8 из 8 (Сергей Гинзбург) [2013, детектив, военный, WEBRip 1080p]

Страницы:  1

Ответить
Автор
Сообщение

ShenRau

Top Loader 01* 100GB

Стаж: 1 год 5 месяцев

Сообщений: 1839

ShenRau · 02-Янв-18 11:12 (5 месяцев 17 дней назад, ред. 02-Янв-18 11:15)

Убить Сталина
Год выпуска: 2013
Производство: Star Media
Жанр: детектив, военный
Продолжительность: 00:51:00
Субтитры: нет
Режиссёр: Сергей Гинзбург
В ролях: Александр Домогаров, Михаил Пореченков, Екатерина Вилкова, Павел Трубинер, Адам Булгучев, Василий Мищенко, Евгений Миллер
Описание: Осень 1941-го года. Немецкие полчища докатились до Москвы. Здесь их сдерживают героические усилия советских войск и рано наступившая морозная зима. Но положение на фронте очень тяжелое. А руководство рейха решает нанести сокрушительный и коварный удар - убить Сталина. Осуществить операцию поручено специальной группе офицеров из команды "Абвера" "Бранденбург-800", которой помогает глубоко внедренный в нашу армию фашистский агент. На пути врага встают умные и смелые сотрудники МГБ СССР…
Релиз:
Реклама: Нет
Сэмпл
Качество: WEBRip 1080p
Формат: MKV
Видео кодек: H.264
Аудио кодек: AC3
Видео: MPEG-4 AVC, 1920х1080, 25fps, ~4000 Kbps, 0,077 Bits/Pixel
Аудио: AC3, 48KHz, 2 ch, 192 Kbps
MI
General
Unique ID : 280200257526836665567345996857461807274 (0xD2CC9B4CBB84DB3AD54AEFD6C68598AA)
Complete name : E:\Ubit.Stalina.2013.WEB-DL.(1080p).Nikolspup\Ubit.Stalina.(1.seriya.iz.8).2013.WEB-DL.(1080p).Nikolspup.mkv
Format : Matroska
Format version : Version 2
File size : 1.49 GiB
Duration : 51mn 1s
Overall bit rate : 4 195 Kbps
Writing application : Lavf54.59.106
Writing library : Lavf54.59.106
Video
ID : 1
Format : AVC
Format/Info : Advanced Video Codec
Format profile : High@L4
Format settings, CABAC : Yes
Format settings, ReFrames : 3 frames
Codec ID : V_MPEG4/ISO/AVC
Duration : 51mn 1s
Bit rate : 4 000 Kbps
Width : 1 920 pixels
Height : 1 080 pixels
Display aspect ratio : 16:9
Frame rate mode : Constant
Frame rate : 25.000 fps
Color space : YUV
Chroma subsampling : 4:2:0
Bit depth : 8 bits
Scan type : Progressive
Bits/(Pixel*Frame) : 0.077
Stream size : 1.40 GiB (93%)
Writing library : x264 core 120
Encoding settings : cabac=1 / ref=3 / deblock=1:0:0 / analyse=0x3:0x133 / me=umh / subme=7 / psy=1 / psy_rd=1.00:0.00 / mixed_ref=1 / me_range=32 / chroma_me=1 / trellis=2 / 8x8dct=1 / cqm=0 / deadzone=21,11 / fast_pskip=1 / chroma_qp_offset=-2 / threads=12 / sliced_threads=0 / nr=0 / decimate=1 / interlaced=0 / bluray_compat=0 / constrained_intra=0 / bframes=0 / weightp=0 / keyint=75 / keyint_min=26 / scenecut=40 / intra_refresh=0 / rc_lookahead=50 / rc=2pass / mbtree=0 / bitrate=4000 / ratetol=1.0 / qcomp=0.20 / qpmin=10 / qpmax=51 / qpstep=4 / cplxblur=20.0 / qblur=0.5 / vbv_maxrate=5000 / vbv_bufsize=5000 / nal_hrd=none / ip_ratio=1.40 / aq=1:1.00
Default : Yes
Forced : No
Color range : Limited
Color primaries : BT.709
Transfer characteristics : BT.709
Matrix coefficients : BT.709
Audio
ID : 2
Format : AC-3
Format/Info : Audio Coding 3
Mode extension : CM (complete main)
Format settings, Endianness : Big
Codec ID : A_AC3
Duration : 51mn 1s
Bit rate mode : Constant
Bit rate : 192 Kbps
Channel(s) : 2 channels
Channel positions : Front: L R
Sampling rate : 44.1 KHz
Compression mode : Lossy
Stream size : 70.1 MiB (5%)
Default : Yes
Forced : No
Скриншоты
Предыдущие и альтернативные раздачи
Download
Чтобы скачать .torrent файл необходима регистрация
Сайт не распространяет и не хранит электронные версии произведений, а лишь предоставляет доступ к создаваемому пользователями каталогу ссылок на торрент-файлы, которые содержат только списки хеш-сумм
[Профиль]  [ЛС] 
 

rpo3a_kz

Стаж: 7 лет 7 месяцев

Сообщений: 41

rpo3a_kz · 13-Мар-18 21:39 (спустя 2 месяца 11 дней)

[Цитировать] 

Поменьше размер, в моем регионе не доступен
[Профиль]  [ЛС] 
 
Ответить
Loading...
Error