Адрес РуТрекера для пользователей РФ - MainTracker.org

Расскажи друзьям:  

Страсть / Серии: 1-30 из 30 (Гарри Закарян) [2017, мелодрама, WEBRip]

Страницы:  1

Ответить
Автор
Сообщение

Pigy

RG Русские сериалы

Стаж: 9 лет 8 месяцев

Сообщений: 2386

Pigy · 02-Янв-18 13:08 (6 месяцев назад)

Страсть
Год выпуска: 2017
Производство: ООО «Доля» по заказу Пятого канала
Жанр: мелодрама
Продолжительность: ~00:27:00 серия
Субтитры: нет
Режиссёр: Гарри Закарян
В ролях: Альвина Тозлиян, Дмитрий Архипов, Вадим Ситников, Ангелина Фролова, Илья Силаев, Светлана Маршанкина, Владимир Иваний
Описание: Как возникает страсть? Чем можно пожертвовать ради неё? Кто попадает в её плен? Героями каждой серии станут люди, поддавшиеся страсти. Студентка не смогла устоять перед своими чувствами к женатому профессору и чуть не попала в тюрьму, взяв на себя чужую вину. Мужчина бросил старшую сестру ради младшей и в результате потерял свой бизнес. Молодая женщина, подозреваемая в убийстве мужа, влюбилась в опера, готового её арестовать. Кто-то из героев, несмотря на трудности, планирует будущее с объектом вожделения. Кому-то удаётся справиться со своей страстью. В общем, всё, как в реальной жизни.

Реклама: Нет.
Кинопоиск
Все раздачи сериала
Sample
Качество: WEBRip - Files-x
Формат: AVI
Видео кодек: XviD
Аудио кодек: AC3
Видео: 720x400 (1.80:1), 25 fps, XviD build 73 ~1600 kbps avg, 0.218 bit/pixel
Аудио: 48.0 kHz, AC3 Dolby Digital, 2/0 (L,R) ch, ~ 192 kbps
MI
General
Complete name : D:\Страсть.2017.WEB-DLRip. Files-x\01.Страсть.2017.WEB-DLRip. Files-x.avi
Format : AVI
Format/Info : Audio Video Interleave
File size : 350 MiB
Duration : 27mn 35s
Overall bit rate : 1 771 Kbps
Writing application : VirtualDubMod 1.5.10.3 | www.virtualdub-fr.org || (build 2550/release)
Writing library : VirtualDubMod build 2550/release
Video
ID : 0
Format : MPEG-4 Visual
Format profile : Advanced Simple@L5
Format settings, BVOP : 1
Format settings, QPel : No
Format settings, GMC : No warppoints
Format settings, Matrix : Custom
Codec ID : XVID
Codec ID/Hint : XviD
Duration : 27mn 35s
Bit rate : 1 570 Kbps
Width : 720 pixels
Height : 400 pixels
Display aspect ratio : 16:9
Frame rate : 25.000 fps
Color space : YUV
Chroma subsampling : 4:2:0
Bit depth : 8 bits
Scan type : Progressive
Compression mode : Lossy
Bits/(Pixel*Frame) : 0.218
Stream size : 310 MiB (89%)
Writing library : XviD 73
Audio
ID : 1
Format : AC-3
Format/Info : Audio Coding 3
Mode extension : CM (complete main)
Format settings, Endianness : Big
Codec ID : 2000
Duration : 27mn 35s
Bit rate mode : Constant
Bit rate : 192 Kbps
Channel count : 2 channels
Channel positions : Front: L R
Sampling rate : 48.0 KHz
Bit depth : 16 bits
Compression mode : Lossy
Stream size : 37.9 MiB (11%)
Alignment : Split accross interleaves
Interleave, duration : 40 ms (1.00 video frame)
Interleave, preload duration : 500 ms
Скриншоты
Download
Чтобы скачать .torrent файл необходима регистрация
Сайт не распространяет и не хранит электронные версии произведений, а лишь предоставляет доступ к создаваемому пользователями каталогу ссылок на торрент-файлы, которые содержат только списки хеш-сумм
[Профиль]  [ЛС] 
 

vacvvm

Стаж: 9 лет 7 месяцев

Сообщений: 1061

vacvvm · 29-Янв-18 15:19 (спустя 27 дней, ред. 01-Апр-18 15:05)

[Цитировать] 

Что-то никто не торопится комментировать.
Да и качать что-то мало желающих.
Жанр типа псевдодокументалки, как в сериале "Детективы".
Каждая серия - отдельная история меньше получаса, не растянутое мыло.
Очень много персонажей - в каждой серии свои, поэтому на актерах сэкономили.
Одна картавит так, что непонятно, как ее вообще в актрисы взяли.
Но так даже лучше - больше похоже на реальную жизнь.
Надо было еще разнообразить толстыми и некрасивыми, было бы еще лучше.
Любовь зла - никого не щадит и типажей не разбирает.
Но большинство этих "актеров" роли не отыгрывают, а отчитывают, Станиславский даже рядом не лежал.
Никакой страсти не чувствуется.
Да и вообще сериал скорее про любовь, чем про голую страсть.
И текст не всегда продуманный: ни один доктор не называет пациентов клиентами.
Но сами истории интересные, по крайней мере некоторые.
[Профиль]  [ЛС] 

Nat852

RG Русские сериалы

Стаж: 8 лет 2 месяца

Сообщений: 827

Nat852 · 10-Июл-18 23:44 (спустя 5 месяцев 12 дней)

[Цитировать] 

Хватило ровно на 6,5 минут. Кружок художественной самодеятельности. Актеры просто деревянные. Может, дальше будет лучше, но что-то не рискнула проверять.
[Профиль]  [ЛС] 
 
Ответить
Loading...
Error