Из любви к собакам (6 сезон 1-8 серии из 8) / Paul O'Grady: For the love of dogs (Катя Грайвес / Katie Greaves) [2017, Документальный, SATRip]

Страницы:  1

Ответить
Автор
Сообщение

anatll

Стаж: 9 лет 11 месяцев

Сообщений: 404

anatll · 11-Янв-18 13:54 (10 месяцев назад)

Из любви к собакам (6 сезон 1-8 серии из 8) / Paul O'Grady: For the love of dogs
Дата/Год выпуска: 2017
Страна: Великобритания
Жанр: Документальный
Продолжительность: 8 х ~ 00:22:30
Перевод: Студийный (одноголосый закадровый)
Доп. инфо о переводе: SDI Media Russia
Русские субтитры: нет
Режиссер серии: Катя Грайвес / Katie Greaves
Телеканал: VIASAT NATURE
Описание: Пол О'Грейди, известный любовью к животным, возвращается с удостоенной многих наград документальной программой о буднях приюта Баттерси для собак и кошек, чьи истории зачастую трогают до слёз. Он тренирует своенравных щенков, обучает новым трюкам старых собак и пытается подыскать новый дом для этих замечательных созданий
Доп. информация: от 6 лет
Сэмпл: https://www.sendspace.com/file/h91gz5
качество: SATRip
формат: AVI
Видео: XviD, 720 х 384 пикс, ~ 2000 Кбит/сек, 25,0 кадр/сек, 0.286 Бит/(Пиксели*Кадры)
Аудио: MP3, 160 Кбит/сек, 48,0 КГц, 2 канала
Список выпусков/серий
1-8
MediaInfo
для 1 серии, остальные серии аналогичны
Общее
Полное имя : C:\фильмы\02 возможно для раздачи\Из любви к собакам 6сезон\Из любви к собакам 6сезон 1-8серии\1серия.avi
Формат : AVI
Формат/Информация : Audio Video Interleave
Размер файла : 343 Мбайт
Продолжительность : 22 м.
Общий поток : 2144 Кбит/сек
Видео
Идентификатор : 0
Формат : MPEG-4 Visual
Профиль формата : Advanced [email protected]
Параметр BVOP формата : Нет
Параметр QPel формата : Нет
Параметр GMC формата : Без точки перехода
Параметр матрицы формата : Default (H.263)
Идентификатор кодека : XVID
Идентификатор кодека/Подсказка : XviD
Продолжительность : 22 м.
Битрейт : 1975 Кбит/сек
Ширина : 720 пикселей
Высота : 384 пикселя
Соотношение сторон : 1,85:1
Частота кадров : 25,000 кадров/сек
Цветовое пространство : YUV
Субдискретизация насыщенности : 4:2:0
Битовая глубина : 8 бит
Тип развёртки : Прогрессивная
Метод сжатия : С потерями
Бит/(Пиксели*Кадры) : 0.286
Размер потока : 316 Мбайт (92%)
Аудио
Идентификатор : 1
Формат : MPEG Audio
Версия формата : Version 1
Профиль формата : Layer 3
Идентификатор кодека : 55
Идентификатор кодека/Подсказка : MP3
Продолжительность : 22 м.
Продолжительность оригинала : 22 м.
Вид битрейта : Постоянный
Битрейт : 160 Кбит/сек
Каналы : 2 канала
Частота : 48,0 КГц
Метод сжатия : С потерями
Размер потока : 25,6 Мбайт (7%)
Выравнивание : Соединение по промежуткам
Продолжительность промежутка : 40 мс. (1,00 видеокадр)
Скриншоты
Скриншот названия
Предыдущие или аналогичные раздачи
из любви к собакам 1-5 выпуски
рождество 12,13,15,16гг
Источник рипа
телепередача, телеканал Viasat Nature
форум "фильмы о собаках и волках"
Download
Чтобы скачать .torrent файл необходима регистрация
Сайт не распространяет и не хранит электронные версии произведений, а лишь предоставляет доступ к создаваемому пользователями каталогу ссылок на торрент-файлы, которые содержат только списки хеш-сумм
[Профиль]  [ЛС] 
 

Tramadol50

Стаж: 8 лет 3 месяца

Сообщений: 118

Tramadol50 · 16-Янв-18 19:59 (спустя 5 дней)

[Цитировать] 

так оперативно выложили. Супер! Одна из любимых передач по ТВ
[Профиль]  [ЛС] 

bot · 22-Янв-18 10:29 (спустя 5 дней)

Тема была перенесена из форума Документальные фильмы и телепередачи в форум [Док] Флора и фауна
SergeyJD
 

Nmaska

Стаж: 9 лет 7 месяцев

Сообщений: 5540

Nmaska · 08-Окт-18 10:02 (спустя 8 месяцев, ред. 08-Окт-18 10:02)

[Цитировать] 

Спасибо
У кого сохранился фильм, вернитесь, пожалуйста, на раздачу.
Все скачалось. Спасибо за помощь
[Профиль]  [ЛС] 
 
Ответить
Loading...
Error