Адрес РуТрекера для пользователей РФ - MainTracker.org

Расскажи друзьям:  

Отель счастливых сердец / Серии: 1-4 из 4 (Валерия Ивановская) [2017, мелодрама, WEBRip]

Страницы:  1

Ответить
Автор
Сообщение

Pigy

RG Русские сериалы

Стаж: 9 лет 5 месяцев

Сообщений: 2209

Pigy · 12-Янв-18 20:02 (3 месяца 13 дней назад)

Отель счастливых сердец
Год выпуска: 2017
Производство: Маурис Филм
Жанр: мелодрама
Продолжительность: ~00:45:00 серия
Субтитры: нет
Режиссёр: Валерия Ивановская
В ролях: Мария Куликова, Лариса Удовиченко, Анна Андрусенко, Елизавета Кононова, Любовь Матюшина, Андрей Барило, Елена Полякова, Александр Мякушко, Екатерина Тарасова, Юрий Батурин, Наталия Колоскова
Описание: Вера - красавица, умница, самостоятельная женщина, строгая мать двух взрослых дочерей. Несколько лет назад ее любимый муж пропал без вести в Африке, и с тех пор Вера одна ведет семью и семейный бизнес, небольшой отель. Под ее неусыпным контролем все в идеальном порядке. Но долго так не бывает, и Верин аккуратный мир уже рушится - старые увлечения, новое чувство, африканские страсти, циничные интриги и трагическое стечение обстоятельств.

Реклама: Нет.
Кинопоиск
Все раздачи сериала
Sample
Качество: WEBRip
Формат: AVI
Видео кодек: XviD
Аудио кодек: AC3
Видео: 720x400 (1.80:1), 25 fps, XviD build 73 ~1700 kbps avg, 0.243 bit/pixel
Аудио: 48.0 kHz, AC3 Dolby Digital, 2/0 (L,R) ch, ~ 192 kbps
MI
General
Complete name : D:\Otel.schastlivyh.serdec.2017.WEB-DLRip\01.serija.avi
Format : AVI
Format/Info : Audio Video Interleave
File size : 599 MiB
Duration : 44mn 30s
Overall bit rate : 1 883 Kbps
Movie name : 0t3Lj.C4aCtL1Byx.C3Pd3c.O1.WEB-DLRip
Writing application : VirtualDubMod 1.5.10.3 | www.virtualdub-fr.org || (build 2550/release)
Original source form/Name : Movie
Video
ID : 0
Format : MPEG-4 Visual
Format profile : Advanced Simple@L5
Format settings, BVOP : 2
Format settings, QPel : No
Format settings, GMC : No warppoints
Format settings, Matrix : Default (H.263)
Codec ID : XVID
Codec ID/Hint : XviD
Duration : 44mn 30s
Bit rate : 1 681 Kbps
Width : 720 pixels
Height : 400 pixels
Display aspect ratio : 16:9
Frame rate : 24.000 fps
Color space : YUV
Chroma subsampling : 4:2:0
Bit depth : 8 bits
Scan type : Progressive
Compression mode : Lossy
Bits/(Pixel*Frame) : 0.243
Stream size : 535 MiB (89%)
Writing library : XviD 1.2.1 (UTC 2008-12-04)
Audio
ID : 1
Format : AC-3
Format/Info : Audio Coding 3
Mode extension : CM (complete main)
Format settings, Endianness : Big
Codec ID : 2000
Duration : 44mn 30s
Bit rate mode : Constant
Bit rate : 192 Kbps
Channel count : 2 channels
Channel positions : Front: L R
Sampling rate : 48.0 KHz
Bit depth : 16 bits
Compression mode : Lossy
Stream size : 61.1 MiB (10%)
Alignment : Split accross interleaves
Interleave, duration : 42 ms (1.00 video frame)
Interleave, preload duration : 500 ms
Скриншоты
Download
Чтобы скачать .torrent файл необходима регистрация
Сайт не распространяет и не хранит электронные версии произведений, а лишь предоставляет доступ к создаваемому пользователями каталогу ссылок на торрент-файлы, которые содержат только списки хеш-сумм
[Профиль]  [ЛС] 
 
 
Ответить
Loading...
Error