Адрес РуТрекера для пользователей РФ - 11.MainTracker.org

Расскажи друзьям:  

Ивановы-Ивановы / Серии: 1-20 из 20 (Антон Федотов) [2017, комедия, WEBRip 720p]

Страницы:  1

Ответить
Автор
Сообщение

-Azureus-

RG Мультфильмы

Стаж: 10 лет

Сообщений: 4889

-Azureus- · 18-Янв-18 16:26 (10 месяцев назад, ред. 18-Янв-18 16:47)

Все раздачи данного сериала на трекере
Ивановы-Ивановы Год выпуска: 2017
Производство: Yellow Black and White, СТС
Жанр: комедия
Продолжительность: ~00:24:00 серия
субтитры: нет
Режиссёр: Антон Федотов
В главных ролях: Семён Трескунов, Сергей Бурунов, Михаил Трухин, Александра Флоринская, Анна Уколова, Юрий Ицков, Алексей Лукин
Описание: Порой родителям кажется, что их ребёнка подменили… а две семьи Ивановых с юга России в этом просто уверены: спустя 16 лет однофамильцы узнают, что их детей перепутали в роддоме. Как быть, если любимый сын на самом деле не родной, а твою кровиночку воспитывают чужие люди? Ещё и в роскоши, которая тебе даже не снилась. И как он примет своих новых, но уж больно бедных родственников?

Качество: WEBRip 720p
Формат: MKV
Видео кодек: AVC
Аудио кодек: AAC
Видео: 1280x720, 25 fps, ~3500 kbps avg, 0.152 bit/pixel
Аудио: 44.1 kHz, AAC, 2 ch, ~128 kbps
скриншоты
MediaInfo
Общее
Уникальный идентификатор : 203967021300748741372250599517045652663 (0x99729E90EFC9C998BE4A601B08D3FCB7)
Полное имя : D:\Ивановы-Ивановы.2017.WEBRip 720p\1 серия.mkv
Формат : Matroska
Версия формата : Version 4 / Version 2
Размер файла : 628 Мбайт
Продолжительность : 24 м. 25 с.
Общий поток : 3596 Кбит/сек
Дата кодирования : UTC 2018-01-18 11:24:50
Программа кодирования : mkvmerge v13.0.0 ('The Juggler') 64bit
Библиотека кодирования : libebml v1.3.4 + libmatroska v1.4.5
Видео
Идентификатор : 1
Формат : AVC
Формат/Информация : Advanced Video Codec
Профиль формата : [email protected]
Настройки формата : CABAC / 5 Ref Frames
Параметр CABAC формата : Да
Параметр RefFrames формата : 5 кадров
Идентификатор кодека : V_MPEG4/ISO/AVC
Продолжительность : 24 м. 25 с.
Битрейт : 3500 Кбит/сек
Ширина : 1280 пикселей
Высота : 720 пикселей
Соотношение сторон : 16:9
Режим частоты кадров : Постоянный
Частота кадров : 25,000 кадров/сек
Цветовое пространство : YUV
Субдискретизация насыщенности : 4:2:0
Битовая глубина : 8 бит
Тип развёртки : Прогрессивная
Бит/(Пиксели*Кадры) : 0.152
Размер потока : 606 Мбайт (96%)
Библиотека кодирования : x264 core 148
Настройки программы : cabac=1 / ref=5 / deblock=1:0:0 / analyse=0x3:0x113 / me=hex / subme=8 / psy=1 / psy_rd=1.00:0.00 / mixed_ref=1 / me_range=16 / chroma_me=1 / trellis=2 / 8x8dct=1 / cqm=0 / deadzone=21,11 / fast_pskip=1 / chroma_qp_offset=-2 / threads=1 / lookahead_threads=1 / sliced_threads=0 / nr=0 / decimate=1 / interlaced=0 / bluray_compat=0 / constrained_intra=0 / bframes=3 / b_pyramid=2 / b_adapt=1 / b_bias=0 / direct=3 / weightb=1 / open_gop=0 / weightp=2 / keyint=250 / keyint_min=25 / scenecut=0 / intra_refresh=0 / rc_lookahead=50 / rc=abr / mbtree=1 / bitrate=3500 / ratetol=1.0 / qcomp=0.60 / qpmin=0 / qpmax=69 / qpstep=4 / ip_ratio=1.40 / aq=1:1.00
Default : Да
Forced : Нет
Аудио
Идентификатор : 2
Формат : AAC
Формат/Информация : Advanced Audio Codec
Профиль формата : LC
Идентификатор кодека : A_AAC-2
Продолжительность : 24 м. 25 с.
Битрейт : 128 Кбит/сек
Каналы : 2 канала
Расположение каналов : Front: L R
Частота : 44,1 КГц
Частота кадров : 43,066 кадра/сек (1024 SPF)
Метод сжатия : С потерями
Задержка видео : -80 мс.
Размер потока : 22,4 Мбайт (4%)
Default : Да
Forced : Нет
Download
Чтобы скачать .torrent файл необходима регистрация
Сайт не распространяет и не хранит электронные версии произведений, а лишь предоставляет доступ к создаваемому пользователями каталогу ссылок на торрент-файлы, которые содержат только списки хеш-сумм
[Профиль]  [ЛС] 
 

bot · 18-Янв-18 16:50 (спустя 24 мин.)

Тема была перенесена из форума Оформление раздач (Группа "Top Seed") в форум Русские сериалы
-Azureus-
 

Сударыня

Moderator gray

Стаж: 11 лет 7 месяцев

Сообщений: 11160

Сударыня · 18-Янв-18 22:27 (спустя 6 часов)

[Цитировать] 

-Azureus- писал(а):
74628405
Цитата:
Название _________.2017.WEBRipsample.mkv
Как сделать семпл
-Azureus- писал(а):
74628405cabac=1 / ref=5 / deblock=1:0:0 / analyse=0x3:0x113 / me=hex / subme=8 / psy=1 / psy_rd=1.00:0.00 / mixed_ref=1 / me_range=16 / chroma_me=1 / trellis=2 / 8x8dct=1 / cqm=0 / deadzone=21,11 / fast_pskip=1 / chroma_qp_offset=-2 / threads=1 / lookahead_threads=1 / sliced_threads=0 / nr=0 / decimate=1 / interlaced=0 / bluray_compat=0 / constrained_intra=0 / bframes=3 / b_pyramid=2 / b_adapt=1 / b_bias=0 / direct=3 / weightb=1 / open_gop=0 / weightp=2 / keyint=250 / keyint_min=25 / scenecut=0 / intra_refresh=0 / rc_lookahead=50 / rc=abr / mbtree=1 / bitrate=3500 / ratetol=1.0 / qcomp=0.60 / qpmin=0 / qpmax=69 / qpstep=4 / ip_ratio=1.40 / aq=1:1.00
Критерии присвоения статусов # (сомнительно) и T (временная)
[Профиль]  [ЛС] 

remsaa

Стаж: 9 лет

Сообщений: 168

remsaa · 04-Мар-18 00:41 (спустя 1 месяц 16 дней)

[Цитировать] 

Во второй серии рассинхрон...
[Профиль]  [ЛС] 

khavruk

Стаж: 6 лет 10 месяцев

Сообщений: 146

khavruk · 20-Мар-18 22:33 (спустя 16 дней)

[Цитировать] 

Классный сериал, Уколова играет просто супер - ее роль, да и все актеры на высоте...
[Профиль]  [ЛС] 

Ardnei

Стаж: 4 года 6 месяцев

Сообщений: 21

Ardnei · 07-Июл-18 13:38 (спустя 3 месяца 17 дней)

[Цитировать] 

Начиная с середины 10-й серии рассинхрон звука и видео в 11-й серии тоже есть, дальше не проверял, удалил, скачал 720 другую раздачу , всё нормально.
[Профиль]  [ЛС] 

Wan-Derer

Стаж: 8 лет 10 месяцев

Сообщений: 9


Wan-Derer · 07-Дек-18 06:33 (спустя 4 месяца 30 дней)

[Цитировать] 

Во всех сериях (по-моему, кроме первой) расползается видео и звук. Смотрел на компе, VLC Player. К концу сильно заметно, больше секунды!
[Профиль]  [ЛС] 
 
Ответить
Loading...
Error