Список желаний / Серии: 1-4 из 4 (Ксения Бугримова, Елена Кобылинская) [2017, мелодрама, SATRip]

Страницы:  1

Ответить
Автор
Сообщение

Pigy

RG Русские сериалы

Стаж: 10 лет

Сообщений: 3450

Pigy · 03-Фев-18 18:04 (9 месяцев назад, ред. 03-Фев-18 18:30)

Список желаний
Год выпуска: 2017
Производство: ООО "Телеканал СТБ"
Жанр: мелодрама
Продолжительность: ~00:45:00 серия
Субтитры: нет
Режиссёр: Ксения Бугримова, Елена Кобылинская
В ролях: Ольга Гришина, Дмитрий Мухин, Артемий Егоров, Дарья Барихашвили, Людмила Титова, Алексей Вертинский, Ахтем Сейтаблаев, Виктория Агалакова, Владимир Заец, Наталья Доля, Артём Позняк, Евгения Мякенькая, Виктор Дёмин
Описание: Менеджер туркомпании Маша Синицына случайно узнает, что серьезно больна – предполагается онкологическое заболевание. Потеряв много лет назад отца с таким же диагнозом, Маша не хочет просто ждать конца, она составляет список желаний – того, что хочет сделать в оставшееся ей время. Почти весь список реализован, но… Маша так любит жизнь, что заставляет болезнь отступить.

Реклама: Нет.
Кино-Театр
Все раздачи сериала
Sample
Качество: SATRip - Files-x
Формат: AVI
Видео кодек: XviD
Аудио кодек: AC3
Видео: 720x384 (1.85:1), 25 fps, XviD build 73 ~1600 kbps avg, 0.235 bit/pixel
Аудио: 48.0 kHz, AC3 Dolby Digital, 2/0 (L,R) ch, ~ 192 kbps
MI
General
Complete name : D:\Spisok.zelanij.2017.SATRip.Files-x\01.Spisok.zelanij.2017.SATRip.Files-x.avi
Format : AVI
Format/Info : Audio Video Interleave
File size : 600 MiB
Duration : 45mn 56s
Overall bit rate : 1 826 Kbps
Writing application : VirtualDubMod 1.5.10.3 | www.virtualdub-fr.org || (build 2550/release)
Writing library : VirtualDubMod build 2550/release
Video
ID : 0
Format : MPEG-4 Visual
Format profile : Advanced [email protected]
Format settings, BVOP : 1
Format settings, QPel : No
Format settings, GMC : No warppoints
Format settings, Matrix : Custom
Codec ID : XVID
Codec ID/Hint : XviD
Duration : 45mn 56s
Bit rate : 1 624 Kbps
Width : 720 pixels
Height : 384 pixels
Display aspect ratio : 1.85:1
Frame rate : 25.000 fps
Color space : YUV
Chroma subsampling : 4:2:0
Bit depth : 8 bits
Scan type : Progressive
Compression mode : Lossy
Bits/(Pixel*Frame) : 0.235
Stream size : 534 MiB (89%)
Writing library : XviD 73
Audio
ID : 1
Format : AC-3
Format/Info : Audio Coding 3
Mode extension : CM (complete main)
Format settings, Endianness : Big
Codec ID : 2000
Duration : 45mn 56s
Bit rate mode : Constant
Bit rate : 192 Kbps
Channel count : 2 channels
Channel positions : Front: L R
Sampling rate : 48.0 KHz
Bit depth : 16 bits
Compression mode : Lossy
Stream size : 63.1 MiB (11%)
Alignment : Split accross interleaves
Interleave, duration : 40 ms (1.00 video frame)
Interleave, preload duration : 500 ms
Скриншоты
Download
Чтобы скачать .torrent файл необходима регистрация
Сайт не распространяет и не хранит электронные версии произведений, а лишь предоставляет доступ к создаваемому пользователями каталогу ссылок на торрент-файлы, которые содержат только списки хеш-сумм
[Профиль]  [ЛС] 
 

horoshistka

Стаж: 9 лет

Сообщений: 136

horoshistka · 03-Фев-18 19:18 (спустя 1 час 13 мин., ред. 03-Фев-18 19:18)

[Цитировать] 

Pigy писал(а):
74728941horoshistka
Исправил. Спасибо за бдительность.
Не за что. Бывает.. Вот если б я была такой же бдительной в отношении себя, любимой... Цены б мне не было.
[Профиль]  [ЛС] 

Fimaroli

Стаж: 7 лет 5 месяцев

Сообщений: 161


Fimaroli · 03-Фев-18 23:30 (спустя 4 часа, ред. 03-Фев-18 23:30)

[Цитировать] 

slavonchikk писал(а):
74729382Украинский классный сериальчик!Рекомендую!!!
Корейский сериал "Аромат женщины" 2011 года с тем же сюжетом,а не украинский.Купили наверное или украли,история умалчивает.Там 16 серий,кстати отличный сериал,очень.
[Профиль]  [ЛС] 

KrassZ

Стаж: 4 года 10 месяцев

Сообщений: 46

KrassZ · 04-Фев-18 15:39 (спустя 16 часов, ред. 04-Фев-18 15:39)

[Цитировать] 

Шикарный украинский сериал. Игра и сюжет на высшем уровне. Попробовал глянуть сериал "АРОМАТ ЖЕНЩИНЫ", в стиле индийского кино. На любителя. По мне, так смотреть не возможно.
[Профиль]  [ЛС] 

Enn

Стаж: 8 лет 9 месяцев

Сообщений: 27

Enn · 10-Июл-18 23:53 (спустя 5 месяцев 6 дней)

[Цитировать] 

Корейский оригинал куда лучше!
[Профиль]  [ЛС] 
 
Ответить
Loading...
Error