Адрес РуТрекера для пользователей РФ - 11.MainTracker.org

Расскажи друзьям:  

Не покидай меня / Сезон: 1 / Серии: 1-4 из 4 / (Александр Франскевич-Лайе) [2013, военный фильм, приключения, WEBRip]

Страницы:  1

Ответить
Автор
Сообщение

Сударыня

Moderator

Стаж: 11 лет 7 месяцев

Сообщений: 11173

Сударыня · 10-Фев-18 11:36 (10 месяцев назад)

Не покидай меня


Год выпуска: 2013
Производство: «Марс Медиа»
Жанр: Военный фильм, приключения
Продолжительность: ~ 46 мин.
Субтитры: Отсутствуют
Режиссер: Александр Франскевич-Лайе
В ролях: Алексей Гуськов, Евгения Брик, Наталия Быстрова, Анна Рыцарева, Ольга Шувалова (II), Александр Франскевич-Лайе, Вероника Пляшкевич, Руслан Чернецкий, Виктор Рыбчинский, Иван Мацкевич, Андрей Душечкин, Святослав Астрамович, Виктор Молчан, Сергей Белякович (II), Игорь Денисов, Андрей Сенькин, Александр Брухацкий, Александр Гарцуев, Юлия Косьмина, Ольга Целих, Александра Мурашко и др.
Описание: Для выполнения особо важного задания фронтовик-разведчик капитан Михасев должен получить под свое командование спецразведгруппу из четырех бойцов. Только эти бойцы оказываются… юными девушками. Вчерашним школьницам предстоит проникнуть на узел связи вражеской армии и парализовать его работу, обеспечив успех наступательной операции советских войск.


Релиз группы

Источник рипа - MediaClub
Все раздачи сериала
Семпл
Кино-Театр
Качество: WEBRip
Формат: AVI
Видео кодек: XviD
Аудио кодек: AC3
Видео: 720x352 (2.05:1), 25 fps, XviD build 73 ~1900 kbps avg, 0.30 bit/pixel
Аудио: 48 kHz, AC3 Dolby Digital, 2/0 (L,R) ch, ~192.00 kbps avg
Источник рипа
Код:
Общее
Уникальный идентификатор                 : 210655878692075084256363183394753256429 (0x9E7AD8B27B86F562A0E71352CC169BED)
Полное имя                               : D:\Торрент\После\Ne.pokiday.menya.2013.WEB-DL.(1080p).MediaClub\Ne.pokiday.menya.(01.seriya.iz.04).2013.WEB-DL.(1080p).MediaClub.mkv
Формат                                   : Matroska
Версия формата                           : Version 4 / Version 2
Размер файла                             : 1,35 Гбайт
Продолжительность                        : 46 м. 0 с.
Общий поток                              : 4191 Кбит/сек
Название фильма                          : Ne.pokiday.menya.(01.seriya.iz.04).2013.WEB-DL.(1080p).MediaClub
Дата кодирования                         : UTC 2014-05-10 11:18:20
Программа кодирования                    : mkvmerge v6.3.0 ('You can't stop me!') built on Jun 28 2013 20:09:41
Библиотека кодирования                   : libebml v1.3.0 + libmatroska v1.4.0
Видео
Идентификатор                            : 1
Формат                                   : AVC
Формат/Информация                        : Advanced Video Codec
Профиль формата                          : [email protected]
Настройки формата                        : CABAC / 3 Ref Frames
Параметр CABAC формата                   : Да
Параметр RefFrames формата               : 3 кадра
Идентификатор кодека                     : V_MPEG4/ISO/AVC
Продолжительность                        : 46 м. 0 с.
Битрейт                                  : 4000 Кбит/сек
Ширина                                   : 1920 пикселей
Высота                                   : 950 пикселей
Соотношение сторон                       : 2,021
Режим частоты кадров                     : Постоянный
Частота кадров                           : 25,000 кадров/сек
Цветовое пространство                    : YUV
Субдискретизация насыщенности            : 4:2:0
Битовая глубина                          : 8 бит
Тип развёртки                            : Прогрессивная
Бит/(Пиксели*Кадры)                      : 0.088
Размер потока                            : 1,26 Гбайт (93%)
Библиотека кодирования                   : x264 core 142 r2389 956c8d8
Настройки программы                      : cabac=1 / ref=3 / deblock=1:0:0 / analyse=0x3:0x133 / me=umh / subme=7 / psy=1 / psy_rd=1.00:0.00 / mixed_ref=1 / me_range=32 / chroma_me=1 / trellis=2 / 8x8dct=1 / cqm=0 / deadzone=21,11 / fast_pskip=1 / chroma_qp_offset=-2 / threads=12 / lookahead_threads=2 / sliced_threads=0 / nr=0 / decimate=1 / interlaced=0 / bluray_compat=0 / constrained_intra=0 / bframes=0 / weightp=0 / keyint=75 / keyint_min=26 / scenecut=40 / intra_refresh=0 / rc_lookahead=50 / rc=2pass / mbtree=0 / bitrate=4000 / ratetol=1.0 / qcomp=0.20 / qpmin=10 / qpmax=51 / qpstep=4 / cplxblur=20.0 / qblur=0.5 / vbv_maxrate=5000 / vbv_bufsize=5000 / nal_hrd=none / filler=0 / ip_ratio=1.40 / aq=1:1.00
Default                                  : Да
Forced                                   : Да
Цветовой диапазон                        : Limited
Основные цвета                           : BT.709
Характеристики трансфера                 : BT.709
Коэффициенты матрицы                     : BT.709
Аудио
Идентификатор                            : 2
Формат                                   : AC-3
Формат/Информация                        : Audio Coding 3
Идентификатор кодека                     : A_AC3
Продолжительность                        : 46 м. 0 с.
Вид битрейта                             : Постоянный
Битрейт                                  : 192 Кбит/сек
Каналы                                   : 2 канала
Расположение каналов                     : Front: L R
Частота                                  : 48,0 КГц
Частота кадров                           : 31,250 кадров/сек (1536 SPF)
Битовая глубина                          : 16 бит
Метод сжатия                             : С потерями
Размер потока                            : 63,2 Мбайт (5%)
Язык                                     : Russian
ServiceKind/String                       : Complete Main
Default                                  : Да
Forced                                   : Да
MediaInfo
Код:
Общее
Полное имя                               : D:\Не покидай меня\Ne.pokiday.menya.S01E01.2013.WEBRip.RG.Russkie.serialy.avi
Формат                                   : AVI
Формат/Информация                        : Audio Video Interleave
Размер файла                             : 692 Мбайт
Продолжительность                        : 46 м. 0 с.
Общий поток                              : 2102 Кбит/сек
Программа кодирования                    : VirtualDubMod 1.5.10.3 | www.virtualdub-fr.org || (build 2550/release)
Библиотека кодирования                   : VirtualDubMod build 2550/release
Видео
Идентификатор                            : 0
Формат                                   : MPEG-4 Visual
Профиль формата                          : Advanced [email protected]
Настройки формата                        : BVOP2 / Custom Matrix
Параметр BVOP формата                    : 2
Параметр QPel формата                    : Нет
Параметр GMC формата                     : Без точки перехода
Параметр матрицы формата                 : Выборочная
Идентификатор кодека                     : XVID
Идентификатор кодека/Подсказка           : XviD
Продолжительность                        : 46 м. 0 с.
Битрейт                                  : 1900 Кбит/сек
Ширина                                   : 720 пикселей
Высота                                   : 352 пикселя
Соотношение сторон                       : 2,045
Частота кадров                           : 25,000 кадров/сек
Цветовое пространство                    : YUV
Субдискретизация насыщенности            : 4:2:0
Битовая глубина                          : 8 бит
Тип развёртки                            : Прогрессивная
Метод сжатия                             : С потерями
Бит/(Пиксели*Кадры)                      : 0.300
Размер потока                            : 625 Мбайт (90%)
Библиотека кодирования                   : XviD 73
Аудио
Идентификатор                            : 1
Формат                                   : AC-3
Формат/Информация                        : Audio Coding 3
Идентификатор кодека                     : 2000
Продолжительность                        : 46 м. 0 с.
Вид битрейта                             : Постоянный
Битрейт                                  : 192 Кбит/сек
Каналы                                   : 2 канала
Расположение каналов                     : Front: L R
Частота                                  : 48,0 КГц
Частота кадров                           : 31,250 кадров/сек (1536 SPF)
Битовая глубина                          : 16 бит
Метод сжатия                             : С потерями
Размер потока                            : 63,2 Мбайт (9%)
Выравнивание                             : Разделение по промежуткам
Продолжительность промежутка             : 40  мс. (1,00 видеокадр)
Время предзагрузки промежутка            : 500  мс.
ServiceKind/String                       : Complete Main
Скриншоты
Download
Чтобы скачать .torrent файл необходима регистрация
Сайт не распространяет и не хранит электронные версии произведений, а лишь предоставляет доступ к создаваемому пользователями каталогу ссылок на торрент-файлы, которые содержат только списки хеш-сумм
[Профиль]  [ЛС] 
 

вауЛЬка

Стаж: 4 года 1 месяц

Сообщений: 285

вауЛЬка · 11-Окт-18 13:15 (спустя 8 месяцев)

[Цитировать] 

несколько наподобие фильмов я уже видела , но совершенно не жалею ,что посмотрела еще и этот
[Профиль]  [ЛС] 
 
Ответить
Loading...
Error