Команда Б / Серии: 1-20 из 20 (Арман Геворгян) [2017, комедия, WEBRip 1080p]

Страницы:  1

Ответить
Автор
Сообщение

Pigy

RG Русские сериалы

Стаж: 9 лет 7 месяцев

Сообщений: 2373

Pigy · 12-Фев-18 18:20 (4 месяца 6 дней назад, ред. 13-Мар-18 16:31)

Команда Б
Год выпуска: 2017
Производство: Студия Стар-Т
Жанр: комедия
Продолжительность: ~00:27:00 серия
Субтитры: нет
Режиссёр: Арман Геворгян
В ролях: Владимир Яглыч, Михаил Ефремов, Настасья Самбурская, Оскар Кучера, Карина Андоленко, Ян Цапник, Михаил Тарабукин, Валерия Федорович, Сергей Баталов, Борис Дергачев, Евгения Ахременко, Даниил Муравьев-Изотов, Павел Крайнов
Описание: Генерал Брусницын, спасая племянника Мишу от тюрьмы, поручает ему возглавить команду обычных ребят, отобранных для полёта на Луну — команду «Б». Он уверен, что эксперимент провалится и «лузеры» никуда не полетят. Но пилот-экстремал Миша, научный сотрудник Света, солдат в юбке Саша, красавчик-качок Егор и врач-неудачник Стас готовы обойти профессионалов из команды «А» и покорить космос.

Реклама: Нет.
Кинопоиск
Все раздачи сериала
Sample
Качество: WEBRip 1080p - Getty
Формат: MKV
Видео кодек: H.264
Аудио кодек: AC3
Видео: MPEG4 AVC Video, H264, 16:9, 1920x800, 25 fps, ~5000 kbps, 0.097 bit/pixel
Аудио: AC3 Dolby Digital, 48.0 kHz, 2/0 (L,R) ch, 192 kbps
Внимание! Раздача ведётся путём добавления новых серий
Раздача ведётся путём добавления новых серий, при каждом добавлении создаётся новый торрент. Чтобы начать докачку новой серии, пользователям необходимо сделать следующее:
- Остановить скачивание.
- Удалить старый торрент у себя из клиента (старые серии удалять не надо).
- Скачать новый торрент и запустить его у себя в клиенте вместо старого, при этом указать клиенту путь в старую папку куда и должно происходить скачивание новых серий.
Ваш клиент при этом должен произвести хеширование (проверку) старой папки (если не производит сам - помогите ему сделать это), и будет докачивать только те серии которых у вас ещё нет. Старые серии при этом не удаляются, а продолжают раздаваться!
Если вы уже удалили старые серии, то предотвратить повторную закачку старых серий можно, отжав галочку в соответствующих местах при запуске нового торрента. По возможности, желательно не удалять старые серии как можно дольше, чтобы релизер не столько продолжал раздавать старые серии, а смог сконцентрироваться на новых.
MI
General
Unique ID : 224855256113224607170216370650581417020 (0xA9298C0E19510D23884920E32581BC3C)
Complete name : D:\Komanda.B.2017.WEB-DL.(1080p).Getty\Komanda.B.e01.2017.WEB-DL.(1080p).Getty.mkv
Format : Matroska
Format version : Version 4 / Version 2
File size : 1.02 GiB
Duration : 27mn 28s
Overall bit rate : 5 315 Kbps
Movie name : Komanda.B.e01.2017.WEB-DL.(1080p).Getty
Encoded date : UTC 2018-02-12 14:16:26
Writing application : mkvmerge v7.8.0 ('River Man') 32bit built on Mar 27 2015 16:18:02
Writing library : libebml v1.3.1 + libmatroska v1.4.2
DURATION : 00:27:28.000000000
NUMBER_OF_FRAMES : 51500
NUMBER_OF_BYTES : 39552000
_STATISTICS_WRITING_APP : mkvmerge v7.8.0 ('River Man') 32bit built on Mar 27 2015 16:18:02
_STATISTICS_WRITING_DATE_UTC : 2018-02-12 14:16:26
_STATISTICS_TAGS : BPS DURATION NUMBER_OF_FRAMES NUMBER_OF_BYTES
Video
ID : 1
Format : AVC
Format/Info : Advanced Video Codec
Format profile : High@L4.0
Format settings, CABAC : Yes
Format settings, ReFrames : 4 frames
Codec ID : V_MPEG4/ISO/AVC
Duration : 27mn 28s
Bit rate : 5 017 Kbps
Width : 1 920 pixels
Height : 1 080 pixels
Display aspect ratio : 16:9
Frame rate mode : Constant
Frame rate : 25.000 fps
Color space : YUV
Chroma subsampling : 4:2:0
Bit depth : 8 bits
Scan type : Progressive
Bits/(Pixel*Frame) : 0.097
Stream size : 986 MiB (94%)
Default : Yes
Forced : No
Audio
ID : 2
Format : AC-3
Format/Info : Audio Coding 3
Mode extension : CM (complete main)
Format settings, Endianness : Big
Codec ID : A_AC3
Duration : 27mn 28s
Bit rate mode : Constant
Bit rate : 192 Kbps
Channel count : 2 channels
Channel positions : Front: L R
Sampling rate : 48.0 KHz
Bit depth : 16 bits
Compression mode : Lossy
Stream size : 37.7 MiB (4%)
Default : Yes
Forced : No
Скриншоты
Download
Чтобы скачать .torrent файл необходима регистрация
Сайт не распространяет и не хранит электронные версии произведений, а лишь предоставляет доступ к создаваемому пользователями каталогу ссылок на торрент-файлы, которые содержат только списки хеш-сумм
[Профиль]  [ЛС] 
 

Pigy

RG Русские сериалы

Стаж: 9 лет 7 месяцев

Сообщений: 2373

Pigy · 12-Фев-18 19:33 (спустя 1 час 12 мин., ред. 12-Фев-18 19:33)

[Цитировать] 

Добавлены 2-5 серии.
Следующие серии ожидаются в следующий понедельник - 19 февраля.
[Профиль]  [ЛС] 

Pigy

RG Русские сериалы

Стаж: 9 лет 7 месяцев

Сообщений: 2373

Pigy · 19-Фев-18 16:40 (спустя 6 дней)

[Цитировать] 

Добавлены 6-9 серии.
Следующие серии ожидаются в понедельник 26 февраля.
[Профиль]  [ЛС] 

Грамыгайлоф

Стаж: 9 лет 8 месяцев

Сообщений: 24

Грамыгайлоф · 21-Фев-18 21:53 (спустя 2 дня 5 часов)

[Цитировать] 

Спасибо за оперативность и качество!
а чо за генерал на постере?
[Профиль]  [ЛС] 

Pigy

RG Русские сериалы

Стаж: 9 лет 7 месяцев

Сообщений: 2373

Pigy · 21-Фев-18 22:13 (спустя 20 мин.)

[Цитировать] 

Грамыгайлоф писал(а):
74845878а чо за генерал на постере?
Михаил Ефремов в роли генерал Брусницына.
[Профиль]  [ЛС] 

Pigy

RG Русские сериалы

Стаж: 9 лет 7 месяцев

Сообщений: 2373

Pigy · 26-Фев-18 18:04 (спустя 4 дня)

[Цитировать] 

Добавлены 10-12 серии.
Следующие серии ожидаются в понедельник 5 марта.
[Профиль]  [ЛС] 

ринтару

Стаж: 6 лет 5 месяцев

Сообщений: 50


ринтару · 26-Фев-18 20:24 (спустя 2 часа 19 мин.)

[Цитировать] 

как можно снимать такую дрянь
[Профиль]  [ЛС] 

GasSnork

Стаж: 5 лет 4 месяца

Сообщений: 2

GasSnork · 27-Фев-18 19:52 (спустя 23 часа)

[Цитировать] 

ринтару писал(а):
74877731как можно снимать такую дрянь
Как можно быть тобой?
Сериал прикольный! Спасибо!
[Профиль]  [ЛС] 

Грамыгайлоф

Стаж: 9 лет 8 месяцев

Сообщений: 24

Грамыгайлоф · 01-Мар-18 21:21 (спустя 2 дня 1 час)

[Цитировать] 

Pigy писал(а):
74846030
Грамыгайлоф писал(а):
74845878а чо за генерал на постере?
Михаил Ефремов в роли генерал Брусницына.
вааще не похож на Михаила Ефремова
[Профиль]  [ЛС] 

big_aztek

Стаж: 8 лет 2 месяца

Сообщений: 27

big_aztek · 06-Мар-18 17:39 (спустя 4 дня)

[Цитировать] 

Грамыгайлоф писал(а):
74895296
Pigy писал(а):
74846030
Грамыгайлоф писал(а):
74845878а чо за генерал на постере?
Михаил Ефремов в роли генерал Брусницына.
вааще не похож на Михаила Ефремова
Михаил, конечно же, как паноптикум из Дня выборов гораздо ярче генерала, но игра-то радует))
вот Камиль Ренатович амплуа не изменил)))
[Профиль]  [ЛС] 

MotoMonstrik

Стаж: 7 лет 9 месяцев

Сообщений: 37


MotoMonstrik · 19-Мар-18 16:38 (спустя 12 дней)

[Цитировать] 

Совершенно не напрягающий сериал, под такой хорошо отдыхать. Много моментов где смеялся до слёз.
Из-за работы не посмотрел последние серии.
Pigy огромное спасибо за старания. Скачал. Начну просмотр с первой серии
[Профиль]  [ЛС] 
 
Ответить
Loading...
Error