Адрес РуТрекера для пользователей РФ - MainTracker.org

Расскажи друзьям:  

Взрыв из прошлого / Сезон: 1 / Серии: 1-4 из 4 (Андрей Иванов (V)) [2014, боевик, HDTVRip]

Страницы:  1

Ответить
Автор
Сообщение

Сударыня

Moderator gray

Стаж: 11 лет 4 месяца

Сообщений: 11005

Сударыня · 17-Фев-18 08:56 (7 месяцев назад, ред. 17-Фев-18 14:50)

Взрыв из прошлого


Год выпуска: 2014
Производство: «Star Media при участии «Город Мастеров» по заказу НТВ»
Жанр: Боевик
Продолжительность: ~ 44 мин.
Субтитры: Отсутствуют
Режиссер: Андрей Иванов (V)
В ролях: Всеволод Цурило, Анастасия Микульчина, Сергей Горобченко, Геннадий Венгеров, Виктор Мелихов, Оксана Скакун, Леонид Ворон, Евгений Савчук, Роман Павлушев, Василий Щипицын, Анна Слынько и др.
Описание: В жизнь удачливого бизнесмена Николая Ковалева прошлое ворвалось взрывом. На него, в прошлом майора спецназа, совершено покушение. Распутывая сложный клубок обстоятельств, он приходит к выводу, что за ним охотится его старый заклятый враг, криминальный авторитет Михась, который когда-то поклялся убить Ковалева и его боевую подругу Римму.
Ковалев бросается на поиски Михася. Здесь очень кстати ему оказывается помощь Риммы, когда-то влюбленной в него. Пройдя через множество препятствий, используя весь арсенал средств специальной подготовки, боевой дуэт все ближе подбирается к криминальному авторитету. Но им приходится отвечать на множество вопросов: где границы дозволенного, какова цена победы, что делать с любовью, внезапно догнавшей их?


Релиз группы

Источник рипа от Серый1779
Все раздачи сериала
Семпл
Кино-Театр
Качество: HDTVRip
Формат: AVI
Видео кодек: XviD
Аудио кодек: AC3
Видео: 720x400 (1.80:1), 25 fps, XviD build 73 ~1899 kbps avg, 0.26 bit/pixel
Аудио: 48 kHz, AC3 Dolby Digital, 2/0 (L,R) ch, ~192.00 kbps avg
MediaInfo
Код:
Общее
Полное имя                               : D:\Взрыв из прошлого\Vzryv.iz.proshlogo.S01E01.2014.HDTVRip.RG.Russkie.serialy.avi
Формат                                   : AVI
Формат/Информация                        : Audio Video Interleave
Размер файла                             : 669 Мбайт
Продолжительность                        : 44 м. 28 с.
Общий поток                              : 2102 Кбит/сек
Программа кодирования                    : VirtualDubMod 1.5.10.3 | www.virtualdub-fr.org || (build 2550/release)
Библиотека кодирования                   : VirtualDubMod build 2550/release
Видео
Идентификатор                            : 0
Формат                                   : MPEG-4 Visual
Профиль формата                          : Advanced Simple@L5
Настройки формата                        : BVOP2 / Custom Matrix
Параметр BVOP формата                    : 2
Параметр QPel формата                    : Нет
Параметр GMC формата                     : Без точки перехода
Параметр матрицы формата                 : Выборочная
Идентификатор кодека                     : XVID
Идентификатор кодека/Подсказка           : XviD
Продолжительность                        : 44 м. 28 с.
Битрейт                                  : 1900 Кбит/сек
Ширина                                   : 720 пикселей
Высота                                   : 400 пикселей
Соотношение сторон                       : 16:9
Частота кадров                           : 25,000 кадров/сек
Цветовое пространство                    : YUV
Субдискретизация насыщенности            : 4:2:0
Битовая глубина                          : 8 бит
Тип развёртки                            : Прогрессивная
Метод сжатия                             : С потерями
Бит/(Пиксели*Кадры)                      : 0.264
Размер потока                            : 604 Мбайт (90%)
Библиотека кодирования                   : XviD 73
Аудио
Идентификатор                            : 1
Формат                                   : AC-3
Формат/Информация                        : Audio Coding 3
Идентификатор кодека                     : 2000
Продолжительность                        : 44 м. 28 с.
Вид битрейта                             : Постоянный
Битрейт                                  : 192 Кбит/сек
Каналы                                   : 2 канала
Расположение каналов                     : Front: L R
Частота                                  : 48,0 КГц
Частота кадров                           : 31,250 кадров/сек (1536 SPF)
Битовая глубина                          : 16 бит
Метод сжатия                             : С потерями
Размер потока                            : 61,1 Мбайт (9%)
Выравнивание                             : Разделение по промежуткам
Продолжительность промежутка             : 40  мс. (1,00 видеокадр)
Время предзагрузки промежутка            : 500  мс.
ServiceKind/String                       : Complete Main
Скриншоты
Download
Чтобы скачать .torrent файл необходима регистрация
Сайт не распространяет и не хранит электронные версии произведений, а лишь предоставляет доступ к создаваемому пользователями каталогу ссылок на торрент-файлы, которые содержат только списки хеш-сумм
[Профиль]  [ЛС] 
 

GenaT

Стаж: 2 года 5 месяцев

Сообщений: 79

GenaT · 17-Фев-18 10:26 (спустя 1 час 29 мин.)

[Цитировать] 

В заглавии написано 2014 год, а в аннотации год выпуска 2017! Чему верить?
[Профиль]  [ЛС] 

Сударыня

Moderator gray

Стаж: 11 лет 4 месяца

Сообщений: 11005

Сударыня · 17-Фев-18 11:37 (спустя 1 час 11 мин.)

[Цитировать] 

GenaT писал(а):
74815348В заглавии написано 2014 год, а в аннотации год выпуска 2017! Чему верить?
Исправила, благодарю
[Профиль]  [ЛС] 

vsivs

Стаж: 10 лет 5 месяцев

Сообщений: 64


vsivs · 17-Фев-18 19:25 (спустя 7 часов)

[Цитировать] 

Большое спасибо за такое оформление! Глаза не бегают по экрану.
Ещё раз спасибо!
С уважением! Виктор.
[Профиль]  [ЛС] 

Сударыня

Moderator gray

Стаж: 11 лет 4 месяца

Сообщений: 11005

Сударыня · 17-Фев-18 20:25 (спустя 1 час)

[Цитировать] 

vsivs писал(а):
74818833Большое спасибо за такое оформление! Глаза не бегают по экрану.
Рада стараться
[Профиль]  [ЛС] 

Max0306

Стаж: 11 лет 10 месяцев

Сообщений: 105

Max0306 · 09-Июл-18 18:21 (спустя 4 месяца 19 дней)

[Цитировать] 

огромное спасибо
[Профиль]  [ЛС] 

Сударыня

Moderator gray

Стаж: 11 лет 4 месяца

Сообщений: 11005

Сударыня · 10-Июл-18 18:20 (спустя 23 часа)

[Цитировать] 

Max0306 писал(а):
75642179огромное спасибо
Max0306, пожалуйста и приятного просмотра
[Профиль]  [ЛС] 
 
Ответить
Loading...
Error