Адрес РуТрекера для пользователей РФ - MainTracker.org

Расскажи друзьям:  

Полицейский с Рублёвки / Сезон: 1 / Серии: 1-8 из 8 (Илья Куликов) [2016, комедия, криминал, драма, HDTV 1080i]

Страницы:  1

Ответить
Автор
Сообщение

Pigy

RG Русские сериалы

Стаж: 9 лет 5 месяцев

Сообщений: 2158

Pigy · 23-Фев-18 22:37 (1 месяц 25 дней назад)

Полицейский с Рублёвки
Год выпуска: 2016
Производство: АВ Контент
Жанр: комедия, криминал, драма
Продолжительность: ~00:48:00 серия
Субтитры: нет
Режиссёр: Илья Куликов
В ролях: Александр Петров, Александра Бортич, Сергей Бурунов, Татьяна Бабенкова, Софья Каштанова, Роман Попов, Ростислав Гулбис, Анастасия Стежко, Лилия Лаврова, Виктория Тарасова, Анна Котова, Сергей Калашников, Сергей Штатнов, Владимир Рузанов
Описание: «Полицейский с Рублёвки» — это история о Грише Измайлове, полицейском, который призван охранять покой и порядок в самом элитном районе России, где живут невероятно богатые люди. Ему приходится расследовать дела, в которые впутываются жители Рублевки, и делает он это нередко превышая свои полномочия. Грише около 30 лет, он красив, одинок, богат, циничен, азартен и ко всему относится с изрядной долей черного юмора. Он заботится о младшей сестре-хулиганке, которую вынужден постоянно вытаскивать из неприятностей. Гриша не прикладывая усилий умеет нравиться женщинам и регулярно издевается над своим начальником Яковлевым.

Реклама: Нет.

Все раздачи сериала
Sample
Качество: HDTV 1080i - daboen
Формат: TS
Видео кодек: AVC
Аудио кодек: MP2
Видео: MPEG4 AVC Video, H264, 16:9, 1920x1080, 25 fps, ~7800 kbps, 0.152 bit/pixel
Аудио: MP2, 2 ch, 192 kbps, 16 bits, 48.0 KHz
MI
General
ID : 1 (0x1)
Complete name : J:\Policejskij.s.Rublyovki.2016.HDTV.1080i\Policejskij.s.Rublyovki.01.2016.HDTV.1080i.ts
Format : MPEG-TS
File size : 2.89 GiB
Duration : 48mn 55s
Overall bit rate mode : Variable
Overall bit rate : 8 469 Kbps
Video
ID : 2741 (0xAB5)
Menu ID : 1257 (0x4E9)
Format : AVC
Format/Info : Advanced Video Codec
Format profile : High@L4.0
Format settings, CABAC : Yes
Format settings, ReFrames : 4 frames
Codec ID : 27
Duration : 48mn 55s
Bit rate : 7 857 Kbps
Width : 1 920 pixels
Height : 1 080 pixels
Display aspect ratio : 16:9
Frame rate : 25.000 fps
Color space : YUV
Chroma subsampling : 4:2:0
Bit depth : 8 bits
Scan type : MBAFF
Bits/(Pixel*Frame) : 0.152
Stream size : 2.68 GiB (93%)
Audio
ID : 2742 (0xAB6)
Menu ID : 1257 (0x4E9)
Format : MPEG Audio
Format version : Version 1
Format profile : Layer 2
Mode : Joint stereo
Mode extension : Intensity Stereo + MS Stereo
Codec ID : 3
Duration : 48mn 55s
Bit rate mode : Constant
Bit rate : 192 Kbps
Channel count : 2 channels
Sampling rate : 48.0 KHz
Compression mode : Lossy
Delay relative to video : -160ms
Stream size : 67.2 MiB (2%)
Language : Russian
Скриншоты
Download
Чтобы скачать .torrent файл необходима регистрация
Сайт не распространяет и не хранит электронные версии произведений, а лишь предоставляет доступ к создаваемому пользователями каталогу ссылок на торрент-файлы, которые содержат только списки хеш-сумм
[Профиль]  [ЛС] 
 

Дмитрий Хохлома

Стаж: 6 лет 4 месяца

Сообщений: 66


Дмитрий Хохлома · 11-Мар-18 06:15 (спустя 15 дней)

[Цитировать] 

Скажите, пожалуйста, здесь надеюсь без цензуры серии?
[Профиль]  [ЛС] 

Pigy

RG Русские сериалы

Стаж: 9 лет 5 месяцев

Сообщений: 2158

Pigy · 11-Мар-18 11:22 (спустя 5 часов)

[Цитировать] 

Дмитрий Хохлома писал(а):
74959497Скажите, пожалуйста, здесь надеюсь без цензуры серии?
Кто вам сказал что версия без цензуры вообще существует?
[Профиль]  [ЛС] 

lorien0112

Стаж: 7 лет 6 месяцев

Сообщений: 2

lorien0112 · 20-Мар-18 19:54 (спустя 9 дней)

[Цитировать] 

Pigy писал(а):
Кто вам сказал что версия без цензуры вообще существует?
На youtube в нарезках без цензуры.
[Профиль]  [ЛС] 

Pigy

RG Русские сериалы

Стаж: 9 лет 5 месяцев

Сообщений: 2158

Pigy · 20-Мар-18 20:06 (спустя 11 мин., ред. 20-Мар-18 20:06)

[Цитировать] 

lorien0112 писал(а):
75023601
Pigy писал(а):
Кто вам сказал что версия без цензуры вообще существует?
На youtube в нарезках без цензуры.
Это всего лишь нарезки, где Бурунов отжигает. Что-то вроде неудачных или смешных дублей которые по понятным причинам не включили в основной монтаж.
Я считаю что версии без цензуры не существует. На 100% конечно не уверен, но факт в том что нигде в интернете её нет, и никто её не видел. Один кто-то решил, что она существует увидев пару роликов, где Бурурнов отборно матерится и все теперь все ищут безуспешно эту несуществующую версию.
[Профиль]  [ЛС] 

DonSerjio

Top Bonus 03* 1TB

Стаж: 9 лет 4 месяца

Сообщений: 3921

DonSerjio · 28-Мар-18 19:49 (спустя 7 дней)

[Цитировать] 

Спасибо!
Хороший сериал оказался, а я смотреть не хотел. Теперь надо будет и второй сезон глянуть.
[Профиль]  [ЛС] 

vanekzbs

Стаж: 3 года 3 месяца

Сообщений: 1


vanekzbs · 16-Апр-18 09:45 (спустя 18 дней)

[Цитировать] 

плохо что в раздачах 1080 первого и второго сезона отсутствует по несколько минут в каждой серии, хорошо что хоть в 720 все ок)))))
[Профиль]  [ЛС] 

Costacur

Стаж: 7 лет 8 месяцев

Сообщений: 16


Costacur · 16-Апр-18 21:58 (спустя 12 часов)

[Цитировать] 

А третий сезон тут будет?
[Профиль]  [ЛС] 

влад белюаков

Стаж: 8 лет 3 месяца

Сообщений: 60


влад белюаков · 17-Апр-18 16:08 (спустя 18 часов)

[Цитировать] 

vanekzbs писал(а):
75187850плохо что в раздачах 1080 первого и второго сезона отсутствует по несколько минут в каждой серии, хорошо что хоть в 720 все ок)))))
всмысле как? я хотел в этом качестве смотреть, теперь засомневался
[Профиль]  [ЛС] 

Pigy

RG Русские сериалы

Стаж: 9 лет 5 месяцев

Сообщений: 2158

Pigy · 17-Апр-18 16:45 (спустя 36 мин., ред. 17-Апр-18 16:45)

[Цитировать] 

влад белюаков писал(а):
75195120
vanekzbs писал(а):
75187850плохо что в раздачах 1080 первого и второго сезона отсутствует по несколько минут в каждой серии, хорошо что хоть в 720 все ок)))))
всмысле как? я хотел в этом качестве смотреть, теперь засомневался
Скорее всего он про отрезанные конечные титры писал. Сомневаюсь что само видео обрезано хотя бы на секунду.
[Профиль]  [ЛС] 
 
Ответить
Loading...
Error