Большой (Расширенная ТВ-версия) / Серии: 1-4 из 4 (Валерий Тодоровский) [2018, драма, HDTV 1080i]

Страницы:  1

Ответить
Автор
Сообщение

Pigy

RG Русские сериалы

Стаж: 9 лет 7 месяцев

Сообщений: 2373

Pigy · 10-Мар-18 11:32 (3 месяца 9 дней назад)

Большой
Год выпуска: 2018
Производство: Продюсерская компания Валерия Тодоровского
Жанр: драма
Продолжительность: ~00:46:00 серия
Субтитры: нет
Режиссёр: Валерий Тодоровский
В ролях: Алиса Фрейндлих, Валентина Теличкина, Александр Домогаров, Николя Ле Риш, Маргарита Симонова, Катя Самуйлина, Анна Исаева, Анастасия Плотникова, Анастасия Прокофьева, Анна Тарасенко, Андрей Сорокин, Егор Туров, Анастасия Фёдорова, Мария Асабина, Азиза Кондыбаева, Мария Арабова, Яна Сексте, Юлия Свежакова, Николай Качура, Николай Романовский, Любава Аристархова, Ирина Савицкова, Сергей Волобуев, Елена Праздникова, Олег Кирсанов, Игорь Захаркин, Павел Белозёров, Ирина Зиброва, Елена Чарквиани, Павел Пархоменко
Описание: Юная и необычайно талантливая танцовщица Юля Ольшанская из маленького шахтерского городка вытягивает «счастливый билет»: её замечает бывший артист балета Потоцкий (Александр Домогаров) и прочит будущее великой балерины, достойной главной сцены страны. Однако для того, чтобы стать бриллиантом, любому, даже самому выдающемуся алмазу, требуется огранка, и путь на легендарные подмостки Большого театра для Юли лежит через стены балетной школы, где опеку над непокорной провинциалкой берет еще более своенравная преподавательница Галина Михайловна Белецкая (Алиса Фрейндлих). Превращение в приму потребует невероятного самоотречения, и Юля на собственном опыте должна будет убедиться, что большой балет – это не только белизна пачек, золото лож и скольжение шелковых лент. Но никакие препятствия не остановят того, у кого есть Большая Мечта.

Реклама: Нет.

Все раздачи сериала
Sample
Качество: HDTV 1080i - daboen
Формат: TS
Видео кодек: AVC
Аудио кодек: MP2
Видео: MPEG4 AVC Video, H264, 16:9, 1920x1080, 25 fps, ~7100 kbps, 0.137 bit/pixel
Аудио: MP2, 2 ch, 192 kbps, 16 bits, 48.0 KHz
MI
General
ID : 1 (0x1)
Complete name : D:\Bol'shoj.2018.HDTV.1080i\Bol'shoj.01.2018.HDTV.1080i.ts
Format : MPEG-TS
File size : 4.90 GiB
Duration : 1h 31mn
Overall bit rate mode : Variable
Overall bit rate : 7 651 Kbps
Video
ID : 2911 (0xB5F)
Menu ID : 1192 (0x4A8)
Format : AVC
Format/Info : Advanced Video Codec
Format profile : High@L4.0
Format settings, CABAC : Yes
Format settings, ReFrames : 4 frames
Codec ID : 27
Duration : 1h 31mn
Bit rate : 7 079 Kbps
Width : 1 920 pixels
Height : 1 080 pixels
Display aspect ratio : 16:9
Frame rate : 25.000 fps
Color space : YUV
Chroma subsampling : 4:2:0
Bit depth : 8 bits
Scan type : MBAFF
Bits/(Pixel*Frame) : 0.137
Stream size : 4.53 GiB (93%)
Audio
ID : 2912 (0xB60)
Menu ID : 1192 (0x4A8)
Format : MPEG Audio
Format version : Version 1
Format profile : Layer 2
Codec ID : 3
Duration : 1h 31mn
Bit rate mode : Constant
Bit rate : 192 Kbps
Channel count : 2 channels
Sampling rate : 48.0 KHz
Compression mode : Lossy
Delay relative to video : -200ms
Stream size : 126 MiB (3%)
Language : Russian
Скриншоты
Download
Чтобы скачать .torrent файл необходима регистрация
Сайт не распространяет и не хранит электронные версии произведений, а лишь предоставляет доступ к создаваемому пользователями каталогу ссылок на торрент-файлы, которые содержат только списки хеш-сумм
[Профиль]  [ЛС] 
 

panas45

Стаж: 5 лет 8 месяцев

Сообщений: 234


panas45 · 12-Мар-18 18:49 (спустя 2 дня 7 часов)

[Цитировать] 

Какие серии?? Это один цельный фильм - не выдумывайте!
[Профиль]  [ЛС] 

Pigy

RG Русские сериалы

Стаж: 9 лет 7 месяцев

Сообщений: 2373

Pigy · 12-Мар-18 19:03 (спустя 14 мин.)

[Цитировать] 

panas45 писал(а):
74970926Какие серии?? Это один цельный фильм - не выдумывайте!
Вам что близорукость не позволяет сопоставить длительность фильма и сериала?
Фильм идет 2 часа 6 минут.
Сериал(или расширенная ТВ-версия) идет 4 серии - 3 часа 2 минуты.
[Профиль]  [ЛС] 
 
Ответить
Loading...
Error