Адрес РуТрекера для пользователей РФ - MainTracker.org

Расскажи друзьям:  

Погоня за прошлым / Капитан Журавлёва / Серии: 1-16 из 16 (Алан Дзоциев) [2015, детектив, WEBRip-AVC]

Страницы:  1

Ответить
Автор
Сообщение

Harry Palmer

Top Seed 02* 80r

Стаж: 10 лет 2 месяца

Сообщений: 1257

Harry Palmer · 12-Мар-18 07:20 (3 месяца 12 дней назад)

Погоня за прошлым / Капитан Журавлёва
Год выпуска: 2015
Производство: "Форвард-фильм", "Панорама"
Жанр: детектив
Продолжительность: 16 x ~ 00:45:00
Субтитры: Нет
Режиссёр: Алан Дзоциев
В ролях: Мария Синяева, Константин Стрельников, Юрий Батурин, Антон Юрьев, Вячеслав Малежик, Ольга Белявская, Юрий Ицков, Полина Гухман, Наталья Мызникова, Андрей Некрасов (II), Игорь Мосюк, Игорь Копылов, Михаил Черняк, Владимир Матвеев, Николай Соловьев (II), Андрей Смелов, Владимир Постников, Андрей Павловец, Екатерина Суворова, Андрей Феськов, Сергей Кушаков, Александр Марушев, Татьяна Бедова, Светлана Казарцева, Михаил Гришин, Ольга Каратеева, Юлия Зоркина, Сергей Уманов, Сергей Беспалов, Ирина Сотикова, Кирилл Горбунов, Валентина Ведерникова, Андрей Карако, Кирилл Таскин, Юрий Герцман, Роман Жилкин, Лариса Климова, Елена Забродина, Сергей Надпорожский, Андрей Тутов, Александр Овчинников (III), Мария Лаврова, Владимир Артёмов, Пётр Гаврилов
Описание: Оказавшись жертвой преступления, молодой медик Варвара Журавлёва решает круто изменить свою жизнь и поступает на службу в полицию. На новом месте работы она быстро добивается внушительных успехов благодаря аналитическому складу ума и сильному характеру. Занимаясь расследованием убийства молодой девушки, Журавлёва убеждается в том, что это преступление является только частью целой криминальной цепочки, в которую вовлечены самые разные, в том числе и властные структуры. Все возможные свидетели преступления отправляются на тот свет раньше, чем Журавлёва успевает получить от них показания. Кому-то очень не нравится рвение капитана Журавлёвой, начинаются угрозы ей и её близким. В ходе расследования Журавлёва пересекается с человеком, когда-то ставшим причиной её страданий и унижений. Мужественно встретив старую угрозу лицом к лицу, Журавлёва выясняет имя этого человека и начинает неотступно идти по его следу.
Реклама: Нет
Сэмпл: http://multi-up.com/1190038
Качество: WEBRip-AVC
Формат: MKV
Видео кодек: H.264
Аудио кодек: AC3
Видео: MPEG-4 (AVC), 1024x576, 25 fps, ~1800 kbps, 0.12 bit/pixel
Аудио: AC3, 48.0 kHz, 2 ch, 192 Kbps
MI
General
Unique ID : 192163521588525234115620932968647518152 (0x9091591973D742C888B62D22BEBC67C8)
Complete name : Погоня за прошлым (01 сер.).mkv
Format : Matroska
Format version : Version 2
File size : 614 MiB
Duration : 43 min 4 s
Overall bit rate : 1 994 kb/s
Encoded date : UTC 2018-03-05 05:56:11
Writing application : mkvmerge v7.8.0 ('River Man') 32bit built on Apr 3 2015 12:11:22
Writing library : libebml v1.3.1 + libmatroska v1.4.2
Video
ID : 1
Format : AVC
Format/Info : Advanced Video Codec
Format profile : High@L3.1
Format settings, CABAC : Yes
Format settings, ReFrames : 6 frames
Codec ID : V_MPEG4/ISO/AVC
Duration : 43 min 4 s
Bit rate : 1 800 kb/s
Width : 1 024 pixels
Height : 576 pixels
Display aspect ratio : 16:9
Frame rate mode : Constant
Frame rate : 25.000 FPS
Color space : YUV
Chroma subsampling : 4:2:0
Bit depth : 8 bits
Scan type : Progressive
Bits/(Pixel*Frame) : 0.122
Stream size : 555 MiB (90%)
Writing library : x264 core 152 r2851 ba24899
Encoding settings : cabac=1 / ref=6 / deblock=1:0:0 / analyse=0x3:0x113 / me=umh / subme=8 / psy=1 / psy_rd=1.00:0.00 / mixed_ref=1 / me_range=24 / chroma_me=1 / trellis=1 / 8x8dct=1 / cqm=0 / deadzone=21,11 / fast_pskip=1 / chroma_qp_offset=-2 / threads=8 / lookahead_threads=1 / sliced_threads=0 / nr=0 / decimate=1 / interlaced=0 / bluray_compat=0 / stitchable=1 / constrained_intra=0 / bframes=6 / b_pyramid=2 / b_adapt=1 / b_bias=0 / direct=3 / weightb=1 / open_gop=0 / weightp=2 / keyint=250 / keyint_min=25 / scenecut=40 / intra_refresh=0 / rc_lookahead=40 / rc=2pass / mbtree=1 / bitrate=1800 / ratetol=1.0 / qcomp=0.60 / qpmin=0 / qpmax=69 / qpstep=4 / cplxblur=20.0 / qblur=0.5 / ip_ratio=1.40 / aq=1:1.00
Default : Yes
Forced : No
Audio
ID : 2
Format : AC-3
Format/Info : Audio Coding 3
Format settings, Endianness : Big
Codec ID : A_AC3
Duration : 43 min 4 s
Bit rate mode : Constant
Bit rate : 192 kb/s
Channel(s) : 2 channels
Channel positions : Front: L R
Sampling rate : 48.0 kHz
Frame rate : 31.250 FPS (1536 spf)
Bit depth : 16 bits
Compression mode : Lossy
Stream size : 59.2 MiB (10%)
Service kind : Complete Main
Default : Yes
Forced : No
Скриншоты
Предыдущие и альтернативные раздачи
Download
Чтобы скачать .torrent файл необходима регистрация
Сайт не распространяет и не хранит электронные версии произведений, а лишь предоставляет доступ к создаваемому пользователями каталогу ссылок на торрент-файлы, которые содержат только списки хеш-сумм
[Профиль]  [ЛС] 
 

Harry Palmer

Top Seed 02* 80r

Стаж: 10 лет 2 месяца

Сообщений: 1257

Harry Palmer · 12-Мар-18 07:21 (спустя 54 сек.)

[Цитировать] 

Рип без логотипа телеканала и всплывающей рекламы.
Сравнение с SATRip-AVC: http://screenshotcomparison.com/comparison/134118
[Профиль]  [ЛС] 

касанна

Победители конкурсов

Стаж: 8 лет 5 месяцев

Сообщений: 7810

касанна · 12-Мар-18 23:14 (спустя 15 часов)

[Цитировать] 

Тут Малежик играет????
[Профиль]  [ЛС] 

sasrikva

Стаж: 10 лет 7 месяцев

Сообщений: 38


sasrikva · 21-Мар-18 22:36 (спустя 8 дней)

[Цитировать] 

Что за имя такое идиотское "Лисёна"? Давай уж Зайчону теперь придумаем или Рыбёну.
[Профиль]  [ЛС] 
 
Ответить
Loading...
Error