Обратный отсчёт / Серии: 1-16 из 16 (Сергей Попов, Дмитрий Аверин, Максим Кубринский) [2017, детектив, WEBRip 1080p]

Страницы:  1

Ответить
Автор
Сообщение

Pigy

RG Русские сериалы

Стаж: 9 лет 7 месяцев

Сообщений: 2373

Pigy · 13-Мар-18 11:18 (3 месяца 6 дней назад, ред. 22-Мар-18 11:51)

Обратный отсчёт
Год выпуска: 2017
Производство: Всемирные Русские Студии
Жанр: детектив
Продолжительность: ~00:48:00 серия
Субтитры: нет
Режиссёр: Сергей Попов, Дмитрий Аверин, Максим Кубринский
В ролях: Юрий Колокольников, Полина Максимова, Алексей Ведерников , Анастасия Лазо, Дмитрий Воробьёв , Виктор Рыбчинский, Кира Кауфман, Юлия Шахмуратова, Владимир Трезубов, Анастасия Кипина, Сергей Воробьёв , Дмитрий Гудим, Пауль Орлански, Игорь Грабузов
Описание: Константин Корсаков ведёт запутанные уголовные дела. Он хладнокровен и беспощаден к самому себе. Каждый день Корсаков имеет дело с жертвами злоумышленников, которые во что бы то ни стало хотят отомстить своим обидчикам. Корсакову нужно предотвратить новые преступления и удержать пострадавших от непоправимых ошибок. В этом ему помогают коллеги: старшие лейтенанты Инга Гордеева, Макс Лобов и лейтенант Люся Алёхина.

Реклама: Нет.

Все раздачи сериала
Sample
Качество: WEBRip 1080p - Nikolspup
Формат: MKV
Видео кодек: H.264
Аудио кодек: AC3
Видео: MPEG4 AVC Video, H264, 16:9, 1920x1080, 25 fps, ~6000 kbps, 0.116 bit/pixel
Аудио: AC3 Dolby Digital, 48.0 kHz, 2/0 (L,R) ch, 192 kbps
Внимание! Раздача ведётся путём добавления новых серий
Раздача ведётся путём добавления новых серий, при каждом добавлении создаётся новый торрент. Чтобы начать докачку новой серии, пользователям необходимо сделать следующее:
- Остановить скачивание.
- Удалить старый торрент у себя из клиента (старые серии удалять не надо).
- Скачать новый торрент и запустить его у себя в клиенте вместо старого, при этом указать клиенту путь в старую папку куда и должно происходить скачивание новых серий.
Ваш клиент при этом должен произвести хеширование (проверку) старой папки (если не производит сам - помогите ему сделать это), и будет докачивать только те серии которых у вас ещё нет. Старые серии при этом не удаляются, а продолжают раздаваться!
Если вы уже удалили старые серии, то предотвратить повторную закачку старых серий можно, отжав галочку в соответствующих местах при запуске нового торрента. По возможности, желательно не удалять старые серии как можно дольше, чтобы релизер не столько продолжал раздавать старые серии, а смог сконцентрироваться на новых.
MI
General
Unique ID : 207429390784719060205524088743542218177 (0x9C0D728FBDF54422B424E2A9E5315DC1)
Complete name : D:\Obratnyy.otschet.2017.WEB-DL.(1080p).Nikolspup\Obratnyy.otschet.(01.seriya).2017.WEB-DL.(1080p).Nikolspup.mkv
Format : Matroska
Format version : Version 4 / Version 2
File size : 2.07 GiB
Duration : 48mn 0s
Overall bit rate mode : Constant
Overall bit rate : 6 170 Kbps
Encoded date : UTC 2018-03-12 19:54:27
Writing application : mkvmerge v7.8.0 ('River Man') 32bit built on Mar 27 2015 16:18:02
Writing library : libebml v1.3.1 + libmatroska v1.4.2
DURATION : 00:48:00.000000000
NUMBER_OF_FRAMES : 90000
NUMBER_OF_BYTES : 69120000
_STATISTICS_WRITING_APP : mkvmerge v7.8.0 ('River Man') 32bit built on Mar 27 2015 16:18:02
_STATISTICS_WRITING_DATE_UTC : 2018-03-12 19:54:27
_STATISTICS_TAGS : BPS DURATION NUMBER_OF_FRAMES NUMBER_OF_BYTES
Video
ID : 1
Format : AVC
Format/Info : Advanced Video Codec
Format profile : High@L4.1
Format settings, CABAC : No
Format settings, ReFrames : 2 frames
Codec ID : V_MPEG4/ISO/AVC
Duration : 48mn 0s
Bit rate mode : Constant
Bit rate : 6 000 Kbps
Width : 1 920 pixels
Height : 1 080 pixels
Display aspect ratio : 16:9
Frame rate mode : Constant
Frame rate : 25.000 fps
Standard : PAL
Color space : YUV
Chroma subsampling : 4:2:0
Bit depth : 8 bits
Scan type : Progressive
Bits/(Pixel*Frame) : 0.116
Stream size : 1.96 GiB (95%)
Default : No
Forced : No
Color primaries : BT.709
Transfer characteristics : BT.709
Matrix coefficients : BT.709
Audio
ID : 2
Format : AC-3
Format/Info : Audio Coding 3
Mode extension : CM (complete main)
Format settings, Endianness : Big
Codec ID : A_AC3
Duration : 48mn 0s
Bit rate mode : Constant
Bit rate : 192 Kbps
Channel count : 2 channels
Channel positions : Front: L R
Sampling rate : 48.0 KHz
Bit depth : 16 bits
Compression mode : Lossy
Stream size : 65.9 MiB (3%)
Language : Russian
Default : Yes
Forced : Yes
Скриншоты
Download
Чтобы скачать .torrent файл необходима регистрация
Сайт не распространяет и не хранит электронные версии произведений, а лишь предоставляет доступ к создаваемому пользователями каталогу ссылок на торрент-файлы, которые содержат только списки хеш-сумм
[Профиль]  [ЛС] 
 

Pigy

RG Русские сериалы

Стаж: 9 лет 7 месяцев

Сообщений: 2373

Pigy · 15-Мар-18 07:00 (спустя 1 день 19 часов, ред. 15-Мар-18 07:00)

[Цитировать] 

Добавлены 3-4 серии.
Добавлены 5-6 серии.
[Профиль]  [ЛС] 

pet2

Стаж: 9 лет 3 месяца

Сообщений: 241

pet2 · 15-Мар-18 16:35 (спустя 9 часов)

[Цитировать] 

Спасибо большое за интересный сериальчик и за качество видео!
[Профиль]  [ЛС] 

Pill70

Стаж: 6 месяцев

Сообщений: 1

Pill70 · 15-Мар-18 22:12 (спустя 5 часов)

[Цитировать] 

О! Надо позырить. Дождусь всех серий. Спасибо.
[Профиль]  [ЛС] 

Pigy

RG Русские сериалы

Стаж: 9 лет 7 месяцев

Сообщений: 2373

Pigy · 22-Мар-18 11:51 (спустя 6 дней, ред. 22-Мар-18 11:51)

[Цитировать] 

Добавлены 7-8 серии.
Добавлены 9-10 серии.
Добавлены 11-12 серии.
Добавлены 13-14 серии.
Добавлены 15-16 серии.
[Профиль]  [ЛС] 
 
Ответить
Loading...
Error