Адрес РуТрекера для пользователей РФ - MainTracker.org

Расскажи друзьям:  

Обратный отсчёт / Серии: 1-16 из 16 (Сергей Попов, Дмитрий Аверин, Максим Кубринский) [2017, детектив, HDTVRip]

Страницы:  1

Ответить
Автор
Сообщение

Pigy

RG Русские сериалы

Стаж: 9 лет 7 месяцев

Сообщений: 2375

Pigy · 13-Мар-18 11:21 (3 месяца 10 дней назад, ред. 22-Мар-18 11:52)

Обратный отсчёт
Год выпуска: 2017
Производство: Всемирные Русские Студии
Жанр: детектив
Продолжительность: ~00:48:00 серия
Субтитры: нет
Режиссёр: Сергей Попов, Дмитрий Аверин, Максим Кубринский
В ролях: Юрий Колокольников, Полина Максимова, Алексей Ведерников , Анастасия Лазо, Дмитрий Воробьёв , Виктор Рыбчинский, Кира Кауфман, Юлия Шахмуратова, Владимир Трезубов, Анастасия Кипина, Сергей Воробьёв , Дмитрий Гудим, Пауль Орлански, Игорь Грабузов
Описание: Константин Корсаков ведёт запутанные уголовные дела. Он хладнокровен и беспощаден к самому себе. Каждый день Корсаков имеет дело с жертвами злоумышленников, которые во что бы то ни стало хотят отомстить своим обидчикам. Корсакову нужно предотвратить новые преступления и удержать пострадавших от непоправимых ошибок. В этом ему помогают коллеги: старшие лейтенанты Инга Гордеева, Макс Лобов и лейтенант Люся Алёхина.

Реклама: Нет.

Все раздачи сериала
Sample
Качество: HDTVRip - Files-x
Формат: AVI
Видео кодек: XviD
Аудио кодек: AC3
Видео: 720x400 (1.80:1), 25 fps, XviD build 73 ~1560 kbps avg, 0.217 bit/pixel
Аудио: 48.0 kHz, AC3 Dolby Digital, 2/0 (L,R) ch, ~ 192 kbps
Внимание! Раздача ведётся путём добавления новых серий
Раздача ведётся путём добавления новых серий, при каждом добавлении создаётся новый торрент. Чтобы начать докачку новой серии, пользователям необходимо сделать следующее:
- Остановить скачивание.
- Удалить старый торрент у себя из клиента (старые серии удалять не надо).
- Скачать новый торрент и запустить его у себя в клиенте вместо старого, при этом указать клиенту путь в старую папку куда и должно происходить скачивание новых серий.
Ваш клиент при этом должен произвести хеширование (проверку) старой папки (если не производит сам - помогите ему сделать это), и будет докачивать только те серии которых у вас ещё нет. Старые серии при этом не удаляются, а продолжают раздаваться!
Если вы уже удалили старые серии, то предотвратить повторную закачку старых серий можно, отжав галочку в соответствующих местах при запуске нового торрента. По возможности, желательно не удалять старые серии как можно дольше, чтобы релизер не столько продолжал раздавать старые серии, а смог сконцентрироваться на новых.
MI
General
Complete name : D:\Обратный отсчет.2017.HDTVRip.Files-x\01.Обратный отсчет.2017.HDTVRip.Files-x.avi
Format : AVI
Format/Info : Audio Video Interleave
File size : 599 MiB
Duration : 47mn 33s
Overall bit rate : 1 761 Kbps
Writing application : VirtualDubMod 1.5.10.3 | www.virtualdub-fr.org || (build 2550/release)
Writing library : VirtualDubMod build 2550/release
Video
ID : 0
Format : MPEG-4 Visual
Format profile : Advanced Simple@L5
Format settings, BVOP : 1
Format settings, QPel : No
Format settings, GMC : No warppoints
Format settings, Matrix : Custom
Codec ID : XVID
Codec ID/Hint : XviD
Duration : 47mn 33s
Bit rate : 1 559 Kbps
Width : 720 pixels
Height : 400 pixels
Display aspect ratio : 16:9
Frame rate : 25.000 fps
Color space : YUV
Chroma subsampling : 4:2:0
Bit depth : 8 bits
Scan type : Progressive
Compression mode : Lossy
Bits/(Pixel*Frame) : 0.217
Stream size : 530 MiB (89%)
Writing library : XviD 73
Audio
ID : 1
Format : AC-3
Format/Info : Audio Coding 3
Mode extension : CM (complete main)
Format settings, Endianness : Big
Codec ID : 2000
Duration : 47mn 33s
Bit rate mode : Constant
Bit rate : 192 Kbps
Channel count : 2 channels
Channel positions : Front: L R
Sampling rate : 48.0 KHz
Bit depth : 16 bits
Compression mode : Lossy
Stream size : 65.3 MiB (11%)
Alignment : Split accross interleaves
Interleave, duration : 40 ms (1.00 video frame)
Interleave, preload duration : 500 ms
Скриншоты
Download
Чтобы скачать .torrent файл необходима регистрация
Сайт не распространяет и не хранит электронные версии произведений, а лишь предоставляет доступ к создаваемому пользователями каталогу ссылок на торрент-файлы, которые содержат только списки хеш-сумм
[Профиль]  [ЛС] 
 

ПсихоКос

Стаж: 2 года 6 месяцев

Сообщений: 148

ПсихоКос · 13-Мар-18 16:26 (спустя 5 часов)

[Цитировать] 

сериал так себе но баба блондинка супер няшная
[Профиль]  [ЛС] 

gkenfb

Стаж: 1 год 1 месяц

Сообщений: 17


gkenfb · 13-Мар-18 19:25 (спустя 2 часа 59 мин.)

[Цитировать] 

шлак, сляпанный как попало, из того,что было, и по быстрому...
[Профиль]  [ЛС] 

Pigy

RG Русские сериалы

Стаж: 9 лет 7 месяцев

Сообщений: 2375

Pigy · 17-Мар-18 13:30 (спустя 3 дня, ред. 17-Мар-18 13:30)

[Цитировать] 

Добавлены 3-4 серии.
Добавлены 5-6 серии.
Добавлены 7-8 серии.
Добавлены 9-10 серии.
[Профиль]  [ЛС] 

cpu1156

Стаж: 4 года 8 месяцев

Сообщений: 55

cpu1156 · 18-Мар-18 19:26 (спустя 1 день 5 часов)

[Цитировать] 

Качество сего творения находится на таком нижайшем уровне, что аж ...
[Профиль]  [ЛС] 

Pigy

RG Русские сериалы

Стаж: 9 лет 7 месяцев

Сообщений: 2375

Pigy · 22-Мар-18 11:52 (спустя 3 дня, ред. 22-Мар-18 11:52)

[Цитировать] 

Добавлены 11-12 серии.
Добавлены 13-14 серии.

Добавлены 15-16 серии.
[Профиль]  [ЛС] 

Evgen_ius

Стаж: 8 лет

Сообщений: 1


Evgen_ius · 30-Мар-18 14:03 (спустя 8 дней)

[Цитировать] 

Хрень полная, на 10 минуте второй серии выключил, нет ни сюжета не остроты, а съемка вообще шлак, постоянно камера дергается..... гггггг
[Профиль]  [ЛС] 

Stradalec

Стаж: 12 лет 11 месяцев

Сообщений: 84


Stradalec · 30-Мар-18 14:10 (спустя 6 мин.)

[Цитировать] 

ну..сильно средненько... на Максимову только попялиться если..хотя после дифчонок серьёзные роли воспринимаются с трудом...
[Профиль]  [ЛС] 

akkord48

Стаж: 8 лет 10 месяцев

Сообщений: 5


akkord48 · 02-Апр-18 19:09 (спустя 3 дня)

[Цитировать] 

...ля. Для любителей Тарковского и почитателей Малевича, конечно, не шедевр. А кто сказал, что развлекательное кино, к которому, несомненно, относится детектив, должно удовлетворять вашим изысканным вкусам? (Если кто не понял, то все, что ранее - это сарказм).
А что до кино, то вполне смотрибельно. Легко, непринужденно, без особых заморочек, без пафоса и морализаторства, как в большинстве зарубежных фильмов, с известной долей юмора. Актеры понравились, в ролях смотрятся органично. В общем, советую.
[Профиль]  [ЛС] 

ки-коз

Стаж: 2 года 10 месяцев

Сообщений: 21

ки-коз · 08-Апр-18 09:00 (спустя 5 дней)

[Цитировать] 

ТАКОГО Я ЕЩЁ НЕ ВИДАЛ!ЭТО КАКИМ НАДО БЫТЬ М.......ОМ ЧТО БЫ ТАКОЙ СЦЕНАРИЙ ЛЯПНУТЬ!А ЕЩЁ ХЛЕШЕ ВЗЯЛ И СНЯЛ!!!!!
[Профиль]  [ЛС] 

vavilov48

Стаж: 4 года 8 месяцев

Сообщений: 244


vavilov48 · 13-Апр-18 16:31 (спустя 5 дней)

[Цитировать] 

ПсихоКос писал(а):
74976431сериал так себе но баба блондинка супер няшная
Только сначала причесать и сменить выражение лица обиженной ТП.
[Профиль]  [ЛС] 

Fimaroli

Стаж: 7 лет

Сообщений: 161


Fimaroli · 13-Апр-18 21:27 (спустя 4 часа)

[Цитировать] 

Наимерзючий сериал.Хуже давненько ничего не видел.Осилил 1,5 серии.
[Профиль]  [ЛС] 
 
Ответить
Loading...
Error