Высокие ставки: Реванш / Сезон: 2 / Серии: 1-16 из 16 (Максим Бриус) [2018, драма, криминал, WEBRip 1080p]

Страницы:  1

Ответить
Автор
Сообщение

Pigy

RG Русские сериалы

Стаж: 9 лет 7 месяцев

Сообщений: 2373

Pigy · 13-Мар-18 11:54 (3 месяца 6 дней назад, ред. 21-Мар-18 22:59)

Высокие ставки: Реванш
Год выпуска: 2018
Производство: Триикс Медиа
Жанр: драма, криминал
Продолжительность: ~00:48:00 серия
Субтитры: нет
Режиссёр: Максим Бриус
В ролях: Алексей Нилов, Лукерия Ильяшенко, Максим Дахненко, Роман Павлушев, Валентин Кузнецов, Екатерина Кашина, Александр Дергапутский, Нина Петровская, Мария Жиганова, Екатерина Полякова
Описание: Современные технологии наступают, не оставляя Космонавту шансов на развитие и получение стабильного дохода. Он продолжает управлять своими игорными заведениями, пока Капитан отбывает наказание, взяв на себя вину Сергеева. После тех событий прошло уже несколько лет, за это время позиции Космонавта на игорном рынке несколько пошатнулись. Все чаще его клиенты стали отдавать предпочтение альтернативному варианту проведения досуга за карточным столом или рулеткой - онлайн казино, а для Сергеева это - прямые конкуренты, и главным из них стала некая Глория Филиппенкова, весьма оперативно сориентировавшаяся в современных тенденциях. Именно ее интернет-ресурс Russian Glory отбирает у Космонавта немалую часть дохода...

Реклама: Нет.

Все раздачи сериала
Sample
Качество: WEBRip 1080p - Nikolspup
Формат: MKV
Видео кодек: H.264
Аудио кодек: AC3
Видео: MPEG4 AVC Video, H264, 16:9, 1920x1080, 25 fps, ~6000 kbps, 0.116 bit/pixel
Аудио: AC3 Dolby Digital, 48.0 kHz, 2/0 (L,R) ch, 192 kbps
Внимание! Раздача ведётся путём добавления новых серий
Раздача ведётся путём добавления новых серий, при каждом добавлении создаётся новый торрент. Чтобы начать докачку новой серии, пользователям необходимо сделать следующее:
- Остановить скачивание.
- Удалить старый торрент у себя из клиента (старые серии удалять не надо).
- Скачать новый торрент и запустить его у себя в клиенте вместо старого, при этом указать клиенту путь в старую папку куда и должно происходить скачивание новых серий.
Ваш клиент при этом должен произвести хеширование (проверку) старой папки (если не производит сам - помогите ему сделать это), и будет докачивать только те серии которых у вас ещё нет. Старые серии при этом не удаляются, а продолжают раздаваться!
Если вы уже удалили старые серии, то предотвратить повторную закачку старых серий можно, отжав галочку в соответствующих местах при запуске нового торрента. По возможности, желательно не удалять старые серии как можно дольше, чтобы релизер не столько продолжал раздавать старые серии, а смог сконцентрироваться на новых.
MI
General
Unique ID : 183856645674006275996295283113558442051 (0x8A51807EFF297A25AA0287F2A0C28043)
Complete name : D:\Vysokie.stavki.Revansh.02.2017.WEB-DL.(1080p).Nikolspup\Vysokie.stavki.Revansh.02.(01.seriya).2017.WEB-DL.(1080p).Nikolspup.mkv
Format : Matroska
Format version : Version 4 / Version 2
File size : 2.08 GiB
Duration : 48mn 16s
Overall bit rate mode : Constant
Overall bit rate : 6 178 Kbps
Encoded date : UTC 2018-03-12 17:56:17
Writing application : mkvmerge v7.8.0 ('River Man') 32bit built on Mar 27 2015 16:18:02
Writing library : libebml v1.3.1 + libmatroska v1.4.2
DURATION : 00:48:16.160000000
NUMBER_OF_FRAMES : 90505
NUMBER_OF_BYTES : 69507840
_STATISTICS_WRITING_APP : mkvmerge v7.8.0 ('River Man') 32bit built on Mar 27 2015 16:18:02
_STATISTICS_WRITING_DATE_UTC : 2018-03-12 17:56:17
_STATISTICS_TAGS : BPS DURATION NUMBER_OF_FRAMES NUMBER_OF_BYTES
Video
ID : 1
Format : AVC
Format/Info : Advanced Video Codec
Format profile : High@L4.1
Format settings, CABAC : No
Format settings, ReFrames : 2 frames
Codec ID : V_MPEG4/ISO/AVC
Duration : 48mn 16s
Bit rate mode : Constant
Bit rate : 6 000 Kbps
Width : 1 920 pixels
Height : 1 080 pixels
Display aspect ratio : 16:9
Frame rate mode : Constant
Frame rate : 25.000 fps
Standard : PAL
Color space : YUV
Chroma subsampling : 4:2:0
Bit depth : 8 bits
Scan type : Progressive
Bits/(Pixel*Frame) : 0.116
Stream size : 1.98 GiB (95%)
Default : No
Forced : No
Color primaries : BT.709
Transfer characteristics : BT.709
Matrix coefficients : BT.709
Audio
ID : 2
Format : AC-3
Format/Info : Audio Coding 3
Mode extension : CM (complete main)
Format settings, Endianness : Big
Codec ID : A_AC3
Duration : 48mn 16s
Bit rate mode : Constant
Bit rate : 192 Kbps
Channel count : 2 channels
Channel positions : Front: L R
Sampling rate : 48.0 KHz
Bit depth : 16 bits
Compression mode : Lossy
Stream size : 66.3 MiB (3%)
Language : Russian
Default : Yes
Forced : Yes
Скриншоты
Download
Чтобы скачать .torrent файл необходима регистрация
Сайт не распространяет и не хранит электронные версии произведений, а лишь предоставляет доступ к создаваемому пользователями каталогу ссылок на торрент-файлы, которые содержат только списки хеш-сумм
[Профиль]  [ЛС] 
 

Pigy

RG Русские сериалы

Стаж: 9 лет 7 месяцев

Сообщений: 2373

Pigy · 16-Мар-18 22:59 (спустя 3 дня, ред. 16-Мар-18 22:59)

[Цитировать] 

Добавлены 3-4 серии.
Добавлены 5-6 серии.
Добавлены 7-8 серии.
Добавлены 9-10 серии.
[Профиль]  [ЛС] 

Pigy

RG Русские сериалы

Стаж: 9 лет 7 месяцев

Сообщений: 2373

Pigy · 21-Мар-18 13:31 (спустя 4 дня, ред. 21-Мар-18 13:31)

[Цитировать] 

Добавлены 11-12 серии.
Добавлены 13-14 серии.
[Профиль]  [ЛС] 

vladosssk

Стаж: 9 лет 7 месяцев

Сообщений: 279

vladosssk · 21-Мар-18 14:29 (спустя 58 мин.)

[Цитировать] 

Хороший сериал! Спасибо огромное!!!
[Профиль]  [ЛС] 

vitek822

Стаж: 2 года 10 месяцев

Сообщений: 146

vitek822 · 21-Мар-18 22:39 (спустя 8 часов)

[Цитировать] 

Спасибо.
[Профиль]  [ЛС] 

Pigy

RG Русские сериалы

Стаж: 9 лет 7 месяцев

Сообщений: 2373

Pigy · 21-Мар-18 23:00 (спустя 20 мин.)

[Цитировать] 

Добавлены 15-16 серии.
[Профиль]  [ЛС] 

2medic

Top Bonus 03* 1TB

Стаж: 11 лет

Сообщений: 235

2medic · 22-Мар-18 11:39 (спустя 12 часов)

[Цитировать] 

Спасибо, добрый человек! Самая лучшая раздача на мой вкус. В остальных либо битрейт слишком низок, либо пропуски кадров наблюдаются.
[Профиль]  [ЛС] 

RobertH

Стаж: 2 года 10 месяцев

Сообщений: 48

RobertH · 22-Мар-18 11:50 (спустя 11 мин.)

[Цитировать] 

А что?Хороший сериал.Вцелом.Хорошая ,на мой взгляд,режиссерская работа.Операторская работа на высоте,-много качественных крупных планов,дали актерам поиграть в полной мере.Слабоват сценарий.В сущности разыгрывается одна и та же схема-Космонавт-обиженные на Космонавта-наезд на Космонавта-победа Космонавта.Всё это методично разбавляется темой конфликта семьи и криминального бизнеса.Повеселила тема,когда Космонавт легко,с обаятельной Ниловской улыбочкой ,пожертвовал общаком ради сохранения бюджета России.А ваще-полный зачет и ждем продолжения!
[Профиль]  [ЛС] 

vertercom

Стаж: 9 лет 3 месяца

Сообщений: 155


vertercom · 22-Мар-18 19:31 (спустя 7 часов)

[Цитировать] 

В данной раздаче самое приемлемое качество! По сериалке-однообразие сюжета зашкаливает. Первый сезон оскароносный по сравнению со этим.....))))))))))))
[Профиль]  [ЛС] 

RobertH

Стаж: 2 года 10 месяцев

Сообщений: 48

RobertH · 23-Мар-18 08:57 (спустя 13 часов, ред. 23-Мар-18 08:57)

[Цитировать] 

Настоящую цену этому сериалу дадут статистические данные МВД о том,какое количество молодых людей начнёт играть в Космонавтов и Капитанов,а сколько в честных трудящихся ,или в честных милиционЭров,хотя присутствия ни тех ,ни других в сериале не предполагается :DИ на примере истории жизни и бытия главных героев отчетливо проводится схема,обозначенная ещё легендарным Доцентом,-украл,выпил,в тюрьму...
[Профиль]  [ЛС] 

savantino

Стаж: 8 лет 2 месяца

Сообщений: 7


savantino · 01-Апр-18 15:41 (спустя 9 дней)

[Цитировать] 

первый сезон смотрелся отлично, а вот второй - мне кажется слегка провальный, не захватывает.
[Профиль]  [ЛС] 
 
Ответить
Loading...
Error