Адрес РуТрекера для пользователей РФ - MainTracker.org

Расскажи друзьям:  

Воронины / Сезон 21 / Серии 1-11 из ??? (Александр Жигалкин) [2018, комедия, семейное кино, SATRip]

Страницы:  1

Ответить
Автор
Сообщение

Сударыня

Moderator gray

Стаж: 10 лет 11 месяцев

Сообщений: 10887

Сударыня · 22-Мар-18 12:09 (29 дней назад, ред. 22-Мар-18 16:28)

Воронины
Год выпуска: 2018
Производство: Россия, СТС
Жанр: комедия, семейное кино
Продолжительность: ~ 24 минуты
Субтитры: нет
Режиссёр: Александр Жигалкин
В ролях: Георгий (Егор) Дронов, Екатерина Волкова (II), Станислав Дужников, Борис Клюев, Анна Фроловцева
Описание: В обычном доме в трехкомнатной квартире живет молодая семья: Костя, его жена Вера и их дети – пятилетняя дочка и два маленьких сына-близнеца. Костя – известный спортивный журналист. Жена Вера любит его и ведет все хозяйство, а дети не доставляют много хлопот. Гораздо больше хлопот им приносят родители Кости, которые живут напротив на той же лестничной площадке… Воронины – это история о том, что иногда родственники бывают слишком близкими.
Все раздачи сериала
Сэмпл: multi-up.com

Качество: SATRip
Формат: AVI
Видео кодек: XviD
Аудио кодек: MP3
Видео: 720x528 (1.36:1), 25 fps, XviD build 73 ~1587 kbps avg, 0.17 bit/pixel
Аудио: 48 kHz, AC3 Dolby Digital, 2/0 (L,R) ch, ~192.00 kbps avg
MI
Общее
Полное имя : D:\Торрент\После\Voroniny.21.2018.SATRiip.Files-x\01.Voroniny.21.2018.SATRiip.Files-x.avi
Формат : AVI
Формат/Информация : Audio Video Interleave
Размер файла : 301 Мбайт
Продолжительность : 23 м. 30 с.
Общий поток : 1790 Кбит/сек
Программа кодирования : VirtualDubMod 1.5.10.3 | www.virtualdub-fr.org || (build 2550/release)
Библиотека кодирования : VirtualDubMod build 2550/release
Видео
Идентификатор : 0
Формат : MPEG-4 Visual
Профиль формата : Advanced Simple@L5
Настройки формата : BVOP1 / Custom Matrix
Параметр BVOP формата : 1
Параметр QPel формата : Нет
Параметр GMC формата : Без точки перехода
Параметр матрицы формата : Выборочная
Идентификатор кодека : XVID
Идентификатор кодека/Подсказка : XviD
Продолжительность : 23 м. 30 с.
Битрейт : 1588 Кбит/сек
Ширина : 720 пикселей
Высота : 528 пикселей
Соотношение сторон : 4:3
Частота кадров : 25,000 кадров/сек
Цветовое пространство : YUV
Субдискретизация насыщенности : 4:2:0
Битовая глубина : 8 бит
Тип развёртки : Прогрессивная
Метод сжатия : С потерями
Бит/(Пиксели*Кадры) : 0.167
Размер потока : 267 Мбайт (89%)
Библиотека кодирования : XviD 73
Аудио
Идентификатор : 1
Формат : AC-3
Формат/Информация : Audio Coding 3
Идентификатор кодека : 2000
Продолжительность : 23 м. 30 с.
Вид битрейта : Постоянный
Битрейт : 192 Кбит/сек
Каналы : 2 канала
Расположение каналов : Front: L R
Частота : 48,0 КГц
Частота кадров : 31,250 кадров/сек (1536 SPF)
Битовая глубина : 16 бит
Метод сжатия : С потерями
Размер потока : 32,3 Мбайт (11%)
Выравнивание : Разделение по промежуткам
Продолжительность промежутка : 40 мс. (1,00 видеокадр)
Время предзагрузки промежутка : 500 мс.
ServiceKind/String : Complete Main
Скриншоты
Как закачать отдельный файл из торрента или докачать ранее пропущенные файлы торрента.
Download
Чтобы скачать .torrent файл необходима регистрация
Сайт не распространяет и не хранит электронные версии произведений, а лишь предоставляет доступ к создаваемому пользователями каталогу ссылок на торрент-файлы, которые содержат только списки хеш-сумм
[Профиль]  [ЛС] 
 

Сударыня

Moderator gray

Стаж: 10 лет 11 месяцев

Сообщений: 10887

Сударыня · 22-Мар-18 12:13 (спустя 4 мин.)

[Цитировать] 

Раздача временная.
Как только shel27 выложит свою раздачу, эта поглотится.
[Профиль]  [ЛС] 

bot · 22-Мар-18 12:18 (спустя 5 мин.)

Тема была перенесена из форума Русские сериалы в форум Воронины
Сударыня
 

Сударыня

Moderator gray

Стаж: 10 лет 11 месяцев

Сообщений: 10887

Сударыня · 22-Мар-18 16:28 (спустя 4 часа)

[Цитировать] 

Добавлены серии 10 и 11. Приятного просмотра.
[Профиль]  [ЛС] 

maximus_lt

Top Bonus 05* 10TB

Стаж: 10 лет 10 месяцев

Сообщений: 2651

maximus_lt · 22-Мар-18 20:17 (спустя 3 часа)

[Цитировать] 

Сударыня, в сети есть 720p только не знаю как выхватить.
[Профиль]  [ЛС] 

Сударыня

Moderator gray

Стаж: 10 лет 11 месяцев

Сообщений: 10887

Сударыня · 22-Мар-18 20:43 (спустя 25 мин.)

[Цитировать] 

maximus_lt писал(а):
75035613в сети есть 720p только не знаю как выхватить.
С ютуба?
[Профиль]  [ЛС] 

valis1607

Стаж: 7 лет 11 месяцев

Сообщений: 63


valis1607 · 24-Мар-18 08:16 (спустя 1 день 11 часов)

[Цитировать] 

112
[Профиль]  [ЛС] 

torrent11022009

Стаж: 9 лет 2 месяца

Сообщений: 27


torrent11022009 · 25-Мар-18 15:30 (спустя 1 день 7 часов)

[Цитировать] 

СПА-СИ-БО!!! КЛАСС!!!
[Профиль]  [ЛС] 

dovik74

Стаж: 7 лет 9 месяцев

Сообщений: 26


dovik74 · 29-Мар-18 19:29 (спустя 4 дня)

[Цитировать] 

Есть еще серии в этом сезоне?
[Профиль]  [ЛС] 

Alexander_88

Стаж: 8 лет 9 месяцев

Сообщений: 6


Alexander_88 · 13-Апр-18 20:06 (спустя 15 дней)

[Цитировать] 

Подскажите, а широкоформатных серий нету? На сайте начиная с 17 сезона серии широкоформатные, изображение на весь экран когда онлайн смотришь. У меня все скачано почти квадратное.. обрезано справа и слева (по сравнению с видео с сайта стс).
[Профиль]  [ЛС] 
 
Ответить
Loading...
Error