Адрес РуТрекера для пользователей РФ - 11.MainTracker.org

Расскажи друзьям:  

Универ. Новая общага / Сезон: 14 / Серии: 1-18 из 18 (Константин Колесов) [2018, комедия, HDTVRip 720p]

Страницы:  1

Ответить
Автор
Сообщение

Pigy

RG Русские сериалы

Стаж: 10 лет 1 месяц

Сообщений: 3800

Pigy · 03-Апр-18 08:46 (8 месяцев назад, ред. 21-Апр-18 05:06)

Универ. Новая общага
Год выпуска: 2018
Производство: "Комеди Клаб продакшн"
Жанр: комедия
Продолжительность: ~00:24:00 серия
Субтитры: нет
Режиссёр: Константин Колесов
В ролях: Арарат Кещян, Александр Стекольников, Станислав Ярушин, Анна Хилькевич, Константин Шелягин, Григорий Кокоткин, Юлия Франц, Екатерина Шумакова, Сергей Пиоро, Влад Соколовский

Описание: «Универ» - больше, чем просто сериал. «Универ» - проверенный друг с отличным чувством юмора, сотнями готовых лайфхаков на все случаи жизни и хорошей долей самоиронии. За эти 10 лет некоторые из актрис сериала, снявшись обнаженными для мужских журналов, стали депутатами в Государственной думе, женами завидных иностранных миллионеров и самыми популярными инстаграмерами. Многие актеры обзавелись прекрасным потомством, а одна сериальная пара даже вдохновила авторов на создание отдельного спиноффа. Но главные герои нового сезона по-прежнему в отличной форме: Маша снимется в проекте 18+, Майкл получит крупное наследство, Антон найдет замену Кристине, а Валя поверит в себя и почувствует свою мужскую силу. Оставаться молодыми и дерзкими парней заставит еще один весомый аргумент: в общагу заселятся две новенькие героини – сестры-двойняшки Ника и Вика.
Доп. информация: В конце 14-ого сезона вышел фильм о сериале "Один день в Универе". Здесь можно скачать HDTVRip этого фильма с яндекс диска в формате avi. Размер файла - 222 Мб. В раздачу добавлять не стал, потому что качество файла отличается от данной раздачи. Оставлю здесь, если модератор не будет ругаться.
Реклама: Нет.

Все раздачи сериала
Sample
Качество: HDTVRip 720p - Nikolspup
Формат: MKV
Видео кодек: H.264
Аудио кодек: AC3
Видео: MPEG4 AVC Video, H264, 16:9, 1280x720, 25 fps, ~4000 kbps, 0.174 bit/pixel
Аудио: AC3 Dolby Digital, 48 kHz, 2/0 (L,R) ch, 192 kbp
Внимание! Раздача ведётся путём добавления новых серий
Раздача ведётся путём добавления новых серий, при каждом добавлении создаётся новый торрент. Чтобы начать докачку новой серии, пользователям необходимо сделать следующее:
- Остановить скачивание.
- Удалить старый торрент у себя из клиента (старые серии удалять не надо).
- Скачать новый торрент и запустить его у себя в клиенте вместо старого, при этом указать клиенту путь в старую папку куда и должно происходить скачивание новых серий.
Ваш клиент при этом должен произвести хеширование (проверку) старой папки (если не производит сам - помогите ему сделать это), и будет докачивать только те серии которых у вас ещё нет. Старые серии при этом не удаляются, а продолжают раздаваться!
Если вы уже удалили старые серии, то предотвратить повторную закачку старых серий можно, отжав галочку в соответствующих местах при запуске нового торрента. По возможности, желательно не удалять старые серии как можно дольше, чтобы релизер не столько продолжал раздавать старые серии, а смог сконцентрироваться на новых.
MI
General
Unique ID : 229565125772845778486969287339526113528 (0xACB4A28ECA1B6969A3D113E4CCD4C8F8)
Complete name : D:\Univer.Novaja.obwaga.14.sezon.2018.HDTVRip.(720p).Nikolspup\Univer.Novaja.obwaga.14.sezon.(01.seriya).2018.HDTVRip.(720p).Nikolspup.mkv
Format : Matroska
Format version : Version 4 / Version 2
File size : 669 MiB
Duration : 22mn 17s
Overall bit rate : 4 194 Kbps
Encoded date : UTC 2018-04-02 18:18:17
Writing application : mkvmerge v7.8.0 ('River Man') 32bit built on Mar 27 2015 16:18:02
Writing library : libebml v1.3.1 + libmatroska v1.4.2
DURATION : 00:22:17.792000000
NUMBER_OF_FRAMES : 41806
NUMBER_OF_BYTES : 32107008
_STATISTICS_WRITING_APP : mkvmerge v7.8.0 ('River Man') 32bit built on Mar 27 2015 16:18:02
_STATISTICS_WRITING_DATE_UTC : 2018-04-02 18:18:17
_STATISTICS_TAGS : BPS DURATION NUMBER_OF_FRAMES NUMBER_OF_BYTES
Video
ID : 1
Format : AVC
Format/Info : Advanced Video Codec
Format profile : [email protected]
Format settings, CABAC : Yes
Format settings, ReFrames : 9 frames
Codec ID : V_MPEG4/ISO/AVC
Duration : 22mn 17s
Bit rate : 4 000 Kbps
Width : 1 280 pixels
Height : 720 pixels
Display aspect ratio : 16:9
Frame rate mode : Constant
Frame rate : 25.000 fps
Color space : YUV
Chroma subsampling : 4:2:0
Bit depth : 8 bits
Scan type : Progressive
Bits/(Pixel*Frame) : 0.174
Stream size : 625 MiB (93%)
Writing library : x264 core 146 r2538 121396c
Encoding settings : cabac=1 / ref=9 / deblock=1:-2:-1 / analyse=0x3:0x133 / me=umh / subme=9 / psy=1 / psy_rd=1.00:0.20 / mixed_ref=1 / me_range=32 / chroma_me=1 / trellis=2 / 8x8dct=1 / cqm=0 / deadzone=21,11 / fast_pskip=1 / chroma_qp_offset=-3 / threads=16 / lookahead_threads=8 / sliced_threads=0 / nr=0 / decimate=1 / interlaced=0 / bluray_compat=0 / constrained_intra=0 / bframes=11 / b_pyramid=2 / b_adapt=2 / b_bias=0 / direct=1 / weightb=1 / open_gop=0 / weightp=2 / keyint=250 / keyint_min=25 / scenecut=40 / intra_refresh=0 / rc=2pass / mbtree=0 / bitrate=4000 / ratetol=1.0 / qcomp=0.60 / qpmin=0 / qpmax=69 / qpstep=4 / cplxblur=20.0 / qblur=0.5 / ip_ratio=1.40 / pb_ratio=1.30 / aq=3:1.00
Default : No
Forced : No
DURATION : 00:22:17.800000000
NUMBER_OF_FRAMES : 33445
NUMBER_OF_BYTES : 668888398
_STATISTICS_WRITING_APP : mkvmerge v7.8.0 ('River Man') 32bit built on Mar 27 2015 16:18:02
_STATISTICS_WRITING_DATE_UTC : 2018-04-02 18:18:17
_STATISTICS_TAGS : BPS DURATION NUMBER_OF_FRAMES NUMBER_OF_BYTES
Color primaries : BT.709
Transfer characteristics : BT.709
Matrix coefficients : BT.709
Audio
ID : 2
Format : AC-3
Format/Info : Audio Coding 3
Mode extension : CM (complete main)
Format settings, Endianness : Big
Codec ID : A_AC3
Duration : 22mn 17s
Bit rate mode : Constant
Bit rate : 192 Kbps
Channel count : 2 channels
Channel positions : Front: L R
Sampling rate : 48.0 KHz
Bit depth : 16 bits
Compression mode : Lossy
Stream size : 30.6 MiB (5%)
Language : Russian
Default : Yes
Forced : Yes
Скриншоты
Download
Чтобы скачать .torrent файл необходима регистрация
Сайт не распространяет и не хранит электронные версии произведений, а лишь предоставляет доступ к создаваемому пользователями каталогу ссылок на торрент-файлы, которые содержат только списки хеш-сумм
[Профиль]  [ЛС] 
 

Paskame

Стаж: 10 лет 1 месяц

Сообщений: 16


Paskame · 04-Апр-18 10:09 (спустя 1 день 1 час)

[Цитировать] 

Спасибо за раздачу. А можно раздать 1080i ts?
[Профиль]  [ЛС] 

Pigy

RG Русские сериалы

Стаж: 10 лет 1 месяц

Сообщений: 3800

Pigy · 05-Апр-18 22:10 (спустя 1 день 12 часов, ред. 05-Апр-18 22:10)

[Цитировать] 

Добавлена 4 серия.
Добавлена 5 серия.
[Профиль]  [ЛС] 

titofranklin

Стаж: 5 лет 10 месяцев

Сообщений: 335

titofranklin · 10-Апр-18 15:07 (спустя 4 дня)

[Цитировать] 

Pigy - спасибо дружище.Оно конечно нынешний универ отстой-отстоем,но привык уже к ним как то,глянуть-мозги расслабить ещё потянет.
[Профиль]  [ЛС] 

Pigy

RG Русские сериалы

Стаж: 10 лет 1 месяц

Сообщений: 3800

Pigy · 12-Апр-18 22:40 (спустя 2 дня 7 часов, ред. 12-Апр-18 22:40)

[Цитировать] 

Добавлена 7 серия.
Добавлена 8 серия.
Добавлена 9 серия.
[Профиль]  [ЛС] 

Pigy

RG Русские сериалы

Стаж: 10 лет 1 месяц

Сообщений: 3800

Pigy · 18-Апр-18 23:00 (спустя 6 дней, ред. 18-Апр-18 23:00)

[Цитировать] 

Добавлены 10-11 серии.
Добавлены 12-13 серии.
Добавлены 14-15 серии.
[Профиль]  [ЛС] 

Alexxx2005x

Стаж: 8 лет 11 месяцев

Сообщений: 9


Alexxx2005x · 20-Апр-18 02:16 (спустя 1 день 3 часа)

[Цитировать] 

Забыли обновить торрент, в раздаче на данный момент только 15 серий.
P.S. Спасибо за труд и оперативность.
[Профиль]  [ЛС] 

Pigy

RG Русские сериалы

Стаж: 10 лет 1 месяц

Сообщений: 3800

Pigy · 20-Апр-18 05:49 (спустя 3 часа)

[Цитировать] 

Alexxx2005x писал(а):
75208986Забыли обновить торрент, в раздаче на данный момент только 15 серий.
P.S. Спасибо за труд и оперативность.
Почему забыл-то у меня и было написано что 15 серий на тот момент - все было верно.
А вот теперь:
Добавлены 16-18 серии. Конец сезона.
[Профиль]  [ЛС] 

alexx-72

Стаж: 10 лет 7 месяцев

Сообщений: 41

alexx-72 · 01-Май-18 07:16 (спустя 11 дней)

[Цитировать] 

Про сценарий данного феномена сериальной кинематографии можно сказать, что это не высосано из пальца. Это выдавлено. Из прямой кишки. Буквально.
[Профиль]  [ЛС] 

leeekaaa1989

Стаж: 4 года 4 месяца

Сообщений: 576

leeekaaa1989 · 20-Май-18 21:22 (спустя 19 дней)

[Цитировать] 

да уж, гопники все портят. Лучший сезон был с новой соседкой
[Профиль]  [ЛС] 
 
Ответить
Loading...
Error