Адрес РуТрекера для пользователей РФ - 11.MainTracker.org

Расскажи друзьям:  

Лишний / Серии: 1-4 из 4 (Руслан Ибрагимов) [2017, детектив, мелодрама, WEBRip 1080p]

Страницы:  1

Ответить
Автор
Сообщение

Pigy

RG Русские сериалы

Стаж: 10 лет 2 месяца

Сообщений: 4012

Pigy · 09-Апр-18 05:28 (9 месяцев назад)

Лишний
Год выпуска: 2017
Производство: Приор Продакшн
Жанр: детектив, мелодрама
Продолжительность: ~00:48:00 серия
Субтитры: нет
Режиссёр: Руслан Ибрагимов
В ролях: Елена Мартыненко, Александр Макагон, Владимир Стержаков, Кирилл Балобан, Владимир Колганов, Максим Брызгалин, Элис Дарс

Описание: В центре сюжета - большая, респектабельная, обеспеченная и на первый взгляд дружная семья Тармановых. Более двадцати лет назад глава семьи Георг Тарманов основал компанию «Maxfarm», ставшую впоследствии одним из лидеров на международном рынке лекарственных препаратов. В настоящее время в совет директоров входят дочь и два старших сына Георга - Анна, Борис и Виктор. Братья надеются выдавить сестру из правления и прибрать компанию к рукам после смерти отца. Но когда Георг умирает, его завещание шокирует семью: оказывается, он оставил все состояние сыну Анны, своему внуку Максиму Тарманову, который еще мальчиком, 12 лет назад утонул в море. А вскоре объявляется и Максим. Молодой человек утверждает, что его похитили, все эти годы держали на какой-то ферме, лишив связи с внешним миром, и только сейчас без объяснений выпустили на свободу… Счастливая мать готова на все, чтобы ее вновь обретенный сын не чувствовал себя лишним и чужим в собственной семье. Но со временем ей начинает казаться, что этот мальчик, у которого кто-то зачем-то отнял 12 лет нормальной жизни, пришел к ним отнюдь не с миром…

Реклама: Нет.
Кинопоиск
Все раздачи сериала
Sample
Качество: WEBRip 1080p - Getty
Формат: MKV
Видео кодек: H.264
Аудио кодек: AC3
Видео: MPEG4 AVC Video, H264, 16:9, 1920x1080, 25 fps, ~5000 kbps, 0.097 bit/pixel
Аудио: AC3 Dolby Digital, 48.0 kHz, 2/0 (L,R) ch, 192 kbps
MI
General
Unique ID : 238000063681927589683215365094312141905 (0xB30D251ADC4C7574A51B02FF3C6A6451)
Complete name : D:\Lichnij.2017.WEB-DL.(1080p).Getty\Lichnij.e01.2017.WEB-DL.(1080p).Getty.mkv
Format : Matroska
Format version : Version 4 / Version 2
File size : 1.77 GiB
Duration : 47mn 49s
Overall bit rate : 5 300 Kbps
Movie name : Lichnij.e01.2017.WEB-DL.(1080p).Getty
Encoded date : UTC 2018-04-07 22:46:43
Writing application : mkvmerge v7.8.0 ('River Man') 32bit built on Mar 27 2015 16:18:02
Writing library : libebml v1.3.1 + libmatroska v1.4.2
DURATION : 00:47:49.024000000
NUMBER_OF_FRAMES : 89657
NUMBER_OF_BYTES : 68856576
_STATISTICS_WRITING_APP : mkvmerge v7.8.0 ('River Man') 32bit built on Mar 27 2015 16:18:02
_STATISTICS_WRITING_DATE_UTC : 2018-04-07 22:46:43
_STATISTICS_TAGS : BPS DURATION NUMBER_OF_FRAMES NUMBER_OF_BYTES
Video
ID : 1
Format : AVC
Format/Info : Advanced Video Codec
Format profile : [email protected]
Format settings, CABAC : Yes
Format settings, ReFrames : 4 frames
Codec ID : V_MPEG4/ISO/AVC
Duration : 47mn 49s
Bit rate : 5 003 Kbps
Width : 1 920 pixels
Height : 1 080 pixels
Display aspect ratio : 16:9
Frame rate mode : Constant
Frame rate : 25.000 fps
Color space : YUV
Chroma subsampling : 4:2:0
Bit depth : 8 bits
Scan type : Progressive
Bits/(Pixel*Frame) : 0.097
Stream size : 1.67 GiB (94%)
Default : Yes
Forced : No
Audio
ID : 2
Format : AC-3
Format/Info : Audio Coding 3
Mode extension : CM (complete main)
Format settings, Endianness : Big
Codec ID : A_AC3
Duration : 47mn 49s
Bit rate mode : Constant
Bit rate : 192 Kbps
Channel count : 2 channels
Channel positions : Front: L R
Sampling rate : 48.0 KHz
Bit depth : 16 bits
Compression mode : Lossy
Stream size : 65.7 MiB (4%)
Default : Yes
Forced : No
Скриншоты
Download
Чтобы скачать .torrent файл необходима регистрация
Сайт не распространяет и не хранит электронные версии произведений, а лишь предоставляет доступ к создаваемому пользователями каталогу ссылок на торрент-файлы, которые содержат только списки хеш-сумм
[Профиль]  [ЛС] 
 

romantiika

Стаж: 5 лет 2 месяца

Сообщений: 17

romantiika · 11-Янв-19 23:51 (спустя 9 месяцев)

[Цитировать] 

Очень понравился
[Профиль]  [ЛС] 
 
Ответить
Loading...
Error