Адрес РуТрекера для пользователей РФ - MainTracker.org

Расскажи друзьям:  

Улица / Сезон: 2 / Серии: 1-34 из 34 (Жанна Кадникова, Николай Бурлак, Михаил Соловьёв) [2018, Драма, комедия, мелодрама, SATRip]

Страницы:  1

Ответить
Автор
Сообщение

Сибиряк777

Top Seed 05* 640r

Стаж: 9 лет 11 месяцев

Сообщений: 2871

Сибиряк777 · 09-Апр-18 16:17 (4 месяца 9 дней назад, ред. 08-Июн-18 23:39)

Улица

Год выпуска: 2018
Производство: ТНТ, ГудСториМедиа
Жанр: Драма, комедия, мелодрама
Продолжительность: 00:27:00
Субтитры: нет
Режиссёр: Жанна Кадникова, Николай Бурлак, Михаил Соловьёв
В ролях: Ольга Баранова, Екатерина Седик, Павел Савинков, Сергей Змичеревский, Артемий Падалка, Марина Богатова, Ксения Жданова, Марта Дромашко, Александр Терехов
Описание: «Улица» — это история жителей одной из улиц спального района большого города. Школьники и студенты, домохозяйки и продавцы, олигархи и простые рабочие — здесь встретятся более 30 персонажей разного возраста и социального статуса, у каждого из них своя история. В большой Вселенной «Улицы» нет главных и второстепенных героев, здесь есть бурная жизнь с ее радостями, горестями, казусами и косяками, страхами, любовными переживаниями и трагедиями. Это история про всех нас и наших соседей.
Релиз группа:
Сэмпл: http://multi-up.com/1194333
Качество: SATRip
Формат: AVI
Видео кодек: XviD
Аудио кодек: AC3
Видео: 720x400 (16:9), 25.000 fps, XviD build 73, 1617 Kbps, 0.23 Bits/Pixel
Аудио: 48 kHz, AC3 Dolby Digital, 2 ch, 192 Kbps
Реклама: Нет
Предыдущие и альтернативные раздачи
MI
General
Complete name :Downloads\Ulica.2.2018.SATRip.Files-x\01.Ulica.2.2018.SATRip.Files-x.avi
Format : AVI
Format/Info : Audio Video Interleave
File size : 301 MiB
Duration : 23mn 6s
Overall bit rate : 1 819 Kbps
Writing application : VirtualDubMod 1.5.10.2 (build 2542/release)
Writing library : VirtualDubMod build 2542/release
Video #0
ID : 0
Format : MPEG-4 Visual
Format profile : Advanced Simple@L5
Format settings, BVOP : 1
Format settings, QPel : No
Format settings, GMC : No warppoints
Format settings, Matrix : Custom
Codec ID : XVID
Codec ID/Hint : XviD
Duration : 23mn 6s
Bit rate : 1 617 Kbps
Width : 720 pixels
Height : 400 pixels
Display aspect ratio : 16:9
Frame rate : 25.000 fps
Color space : YUV
Chroma subsampling : 4:2:0
Bit depth : 8 bits
Scan type : Progressive
Compression mode : Lossy
Bits/(Pixel*Frame) : 0.225
Stream size : 267 MiB (89%)
Writing library : XviD 73
Audio #1
ID : 1
Format : AC-3
Format/Info : Audio Coding 3
Mode extension : CM (complete main)
Format settings, Endianness : Big
Codec ID : 2000
Duration : 23mn 6s
Bit rate mode : Constant
Bit rate : 192 Kbps
Channel(s) : 2 channels
Channel positions : Front: L R
Sampling rate : 48.0 KHz
Bit depth : 16 bits
Compression mode : Lossy
Stream size : 31.7 MiB (11%)
Alignment : Split accross interleaves
Interleave, duration : 40 ms (1.00 video frame)
Interleave, preload duration : 500 ms
Скриншоты
Внимание! Раздача ведётся путём добавления новых серий:
(1) остановить скачивание,
(2) удалить старый торрент у себя из клиента (старые серии удалять не надо),
(3) скачать новый торрент и запустить его у себя в клиенте вместо старого, при этом указать клиенту путь в старую папку куда и должно происходить скачивание новых серий.
Ваш клиент при этом должен произвести хеширование (проверку) старой папки (если не производит сам - помогите ему сделать это), и будет докачивать только те серии которых у вас ещё нет. Старые серии при этом не удаляются, а продолжают раздаваться!
Eсли вы уже удалили старые серии, то предотвратить повторную закачку старых серий можно, отжав галочку в соответсвующих местах при запуске нового торрента. По возможности, желательно не удалять старые серии как можно дольше чтобы релизёр не столько продолжал раздавать старые серии, а смог сконцентрироваться на новых
.
Download
Чтобы скачать .torrent файл необходима регистрация
Сайт не распространяет и не хранит электронные версии произведений, а лишь предоставляет доступ к создаваемому пользователями каталогу ссылок на торрент-файлы, которые содержат только списки хеш-сумм
[Профиль]  [ЛС] 
 

Сударыня

Moderator gray

Стаж: 11 лет 3 месяца

Сообщений: 10990

Сударыня · 09-Апр-18 17:19 (спустя 1 час 2 мин.)

[Цитировать] 

Просьба посетить эту тему
Тестирование двух хостингов для сравнения видеофайлов
[Профиль]  [ЛС] 

Vityok1987

Стаж: 4 года 10 месяцев

Сообщений: 2


Vityok1987 · 25-Апр-18 17:36 (спустя 16 дней)

[Цитировать] 

Новой не было ещё?
[Профиль]  [ЛС] 

Сибиряк777

Top Seed 05* 640r

Стаж: 9 лет 11 месяцев

Сообщений: 2871

Сибиряк777 · 23-Май-18 23:06 (спустя 28 дней, ред. 23-Май-18 23:06)

[Цитировать] 

UP
[Профиль]  [ЛС] 

welcome26

Стаж: 7 лет 6 месяцев

Сообщений: 3


welcome26 · 24-Май-18 07:58 (спустя 8 часов)

[Цитировать] 

спасибо.
[Профиль]  [ЛС] 

Сибиряк777

Top Seed 05* 640r

Стаж: 9 лет 11 месяцев

Сообщений: 2871

Сибиряк777 · 31-Май-18 02:06 (спустя 6 дней, ред. 31-Май-18 02:06)

[Цитировать] 

+28
[Профиль]  [ЛС] 

Сибиряк777

Top Seed 05* 640r

Стаж: 9 лет 11 месяцев

Сообщений: 2871

Сибиряк777 · 08-Июн-18 23:44 (спустя 8 дней, ред. 08-Июн-18 23:44)

[Цитировать] 

Все серии 2-го сезона.
[Профиль]  [ЛС] 

skyhawk7

Стаж: 8 лет 3 месяца

Сообщений: 56


skyhawk7 · 10-Июн-18 20:43 (спустя 1 день 20 часов)

[Цитировать] 

а кто поет финальную песню в 29 серии?
[Профиль]  [ЛС] 

a1oha

Стаж: 8 лет 5 месяцев

Сообщений: 66


a1oha · 18-Июн-18 23:38 (спустя 8 дней)

[Цитировать] 

вот теперь и посмотрю 2с. спасибо
[Профиль]  [ЛС] 
 
Ответить
Loading...
Error