Адрес РуТрекера для пользователей РФ - MainTracker.org

Расскажи друзьям:  

Берёзка / Серии: 1-2 из 16 (Александр Баранов) [2018, Мелодрама, SATRip]

Страницы:  1

Тема закрыта
Автор
Сообщение

Сибиряк777

Top Seed 05* 640r

Стаж: 9 лет 8 месяцев

Сообщений: 2807

Сибиряк777 · 09-Апр-18 17:03 (1 месяц 17 дней назад, ред. 09-Апр-18 17:16)

[Цитировать] 

Берёзка

Год выпуска: 2018
Производство: кинокомпания "Русское"
Жанр: Мелодрама
Продолжительность: 00:50:27
Субтитры: нет
Режиссёр: Александр Баранов
В ролях: Любовь Константинова, Ольга Бобкова, Алёна Коломина, Мария Порошина, Лидия Вележева, Алексей Серебряков, Михаил Ефремов, Нина Усатова, Надежда Маркина, Евгений Сидихин, Сергей Шакуров, Михаил Пшеничный, Пётр Рыков, Анастасия Стежко, Татьяна Чердынцева, Евгения Каверау, Александр Никитин (III), Анастасия Крылова (II), Анар Халилов, Александр Асташёнок, Маруся Пестунова, Марк Богатырёв, Сергей Уусталу, Майя Горбань, Антон Феоктистов, Марк Юсеф
Описание: Середина 80-х годов. «Берёзка» знаменита во всем мире. Попасть в ансамбль – мечта многих девушек. Но это задача под силу лишь самым талантливым и амбициозным!
Три героини пытаются примкнуть к знаменитому танцевальному действу, но девушкам предстоит выдержать испытание завистью, немыслимой конкуренцией ради покорения заветной цели. Для того, чтобы их мечта стала реальностью они не остановятся ни перед чем. Желая собственной славы, они принимают непростые правила, царящие за кулисами – все то, о чем не догадываются зрители в зале, аплодирующие знаменитому «плывущему» шагу, тайна которого до сих пор хранится в строгом секрете!
На фоне эпохальных сдвигов в стране, ансамбль переживает не самый лучший период. Директору «Берёзки» Геннадию Манькову (Михаил Ефремов) придётся всеми правдами и неправдами доказывать, что искусству нужна поддержка даже в кризис. А худруку Надежде Светловой (Лидия Вележева) предстоит отстаивать приоритеты творчества перед бюрократической машиной. Светловой особенно ценна поддержка близкого друга Анатолия (Алексей Серебряков), куратору коллектива, который долгие годы влюблён в неё.
Сэмпл: http://multi-up.com/1194343
Качество: SATRip
Формат: AVI
Видео кодек: XviD
Аудио кодек: MP3
Видео: 720x400 (16:9), 25.000 fps, XviD, 1800 Kbps, 0.25 Bits/Pixel
Аудио: 48 kHz, MP3, 2 ch, 128 Kbps
Реклама: Да
MI
General
Complete name : Downloads\Berezka\Berezka.02.avi
Format : AVI
Format/Info : Audio Video Interleave
File size : 699 MiB
Duration : 50mn 27s
Overall bit rate : 1 937 Kbps
Writing application : VirtualDubMod 1.5.10.3 | www.virtualdub-fr.org || (build 2550/release)
Writing library : VirtualDubMod build 2550/release
Video #0
ID : 0
Format : MPEG-4 Visual
Format profile : Advanced Simple@L5
Format settings, BVOP : 2
Format settings, QPel : No
Format settings, GMC : No warppoints
Format settings, Matrix : Default (H.263)
Codec ID : XVID
Codec ID/Hint : XviD
Duration : 50mn 27s
Bit rate : 1 800 Kbps
Width : 720 pixels
Height : 400 pixels
Display aspect ratio : 16:9
Frame rate : 25.000 fps
Color space : YUV
Chroma subsampling : 4:2:0
Bit depth : 8 bits
Scan type : Progressive
Compression mode : Lossy
Bits/(Pixel*Frame) : 0.250
Stream size : 650 MiB (93%)
Writing library : XviD 1.2.1 (UTC 2008-12-04)
Audio #1
ID : 1
Format : MPEG Audio
Format version : Version 1
Format profile : Layer 3
Mode : Joint stereo
Mode extension : MS Stereo
Codec ID : 55
Codec ID/Hint : MP3
Duration : 50mn 27s
Bit rate mode : Constant
Bit rate : 128 Kbps
Channel(s) : 2 channels
Sampling rate : 48.0 KHz
Compression mode : Lossy
Stream size : 46.2 MiB (7%)
Alignment : Aligned on interleaves
Interleave, duration : 40 ms (1.00 video frame)
Interleave, preload duration : 504 ms
Writing library : LAME3.99r
Encoding settings : -m j -V 4 -q 9 -lowpass 17 -b 128
Скриншоты
Внимание! Раздача ведётся путём добавления новых серий:
(1) остановить скачивание,
(2) удалить старый торрент у себя из клиента (старые серии удалять не надо),
(3) скачать новый торрент и запустить его у себя в клиенте вместо старого, при этом указать клиенту путь в старую папку куда и должно происходить скачивание новых серий.
Ваш клиент при этом должен произвести хеширование (проверку) старой папки (если не производит сам - помогите ему сделать это), и будет докачивать только те серии которых у вас ещё нет. Старые серии при этом не удаляются, а продолжают раздаваться!
Eсли вы уже удалили старые серии, то предотвратить повторную закачку старых серий можно, отжав галочку в соответсвующих местах при запуске нового торрента. По возможности, желательно не удалять старые серии как можно дольше чтобы релизёр не столько продолжал раздавать старые серии, а смог сконцентрироваться на новых
.
Предыдущие и альтернативные раздачи
[Профиль]  [ЛС] 
 

Suvorovsk

Стаж: 5 лет 2 месяца

Сообщений: 47

Suvorovsk · 09-Апр-18 20:26 (спустя 3 часа)

[Цитировать] 

спс за оперативность... ещё не смотрел, но обязательно буду, по завершению сезона
[Профиль]  [ЛС] 

solomon585858

Стаж: 9 лет 8 месяцев

Сообщений: 101

solomon585858 · 09-Апр-18 22:02 (спустя 1 час 36 мин.)

[Цитировать] 

Ефремов? ПАС!!!
[Профиль]  [ЛС] 

krus220

Стаж: 7 лет 4 месяца

Сообщений: 177

krus220 · 10-Апр-18 16:24 (спустя 18 часов)

[Цитировать] 

посмотрим...
[Профиль]  [ЛС] 

skopa1

Стаж: 10 лет 5 месяцев

Сообщений: 38


skopa1 · 10-Апр-18 19:43 (спустя 3 часа)

[Цитировать] 

да ефремова там на 3 сек , мне нравится , очень приятно и душевно смотреть, жаль , что мелодрамы больше чем работы и творчества , второе гораздо интереснее ))). Спасибо за оперативность !
[Профиль]  [ЛС] 

cantimor

Победители спортивных конкурсов

Стаж: 2 года 5 месяцев

Сообщений: 451

cantimor · 10-Апр-18 20:32 (спустя 49 мин.)

[Цитировать] 

"красная королева" - 2
[Профиль]  [ЛС] 

vladimir007039

Стаж: 9 лет 2 месяца

Сообщений: 16


vladimir007039 · 10-Апр-18 23:19 (спустя 2 часа 46 мин.)

[Цитировать] 

Как вижу логотипы РОССИЯ или НТВ, т ак однозначно ШЛАК!!!!!((... На РОССИЯ последний раз нормуль фильм был, это БРИГАДА, а на НТВ в АВГУСТЕ 44-ГО.... Всё остальное ГОЛИМЫЙ ШЛАК!!....
[Профиль]  [ЛС] 

tasha.s

Стаж: 11 лет 9 месяцев

Сообщений: 71


tasha.s · 11-Апр-18 00:07 (спустя 47 мин.)

[Цитировать] 

Начало интересное, спасибо.
[Профиль]  [ЛС] 

Сударыня

Moderator gray

Стаж: 11 лет 1 месяц

Сообщений: 10903

Сударыня · 11-Апр-18 18:39 (спустя 18 часов)

[Цитировать] 

http://1.maintracker.org/forum/viewtopic.php?t=5547368
[Профиль]  [ЛС] 

bot · 13-Апр-18 09:59 (спустя 1 день 15 часов)

Тема была перенесена из форума Русские сериалы в форум Архив (Русские сериалы)
Сударыня
 
 
Тема закрыта
Loading...
Error