Адрес РуТрекера для пользователей РФ - MainTracker.org

Расскажи друзьям:  

Улица / Сезон: 2 / Серии: 1-34 из 34 (Жанна Кадникова, Николай Бурлак, Михаил Соловьёв) [2018, Драма, комедия, мелодрама, WEBRip]

Страницы:  1

Ответить
Автор
Сообщение

Сибиряк777

Top Seed 05* 640r

Стаж: 9 лет 11 месяцев

Сообщений: 2871

Сибиряк777 · 10-Апр-18 23:19 (4 месяца 9 дней назад, ред. 12-Июн-18 16:27)

Улица
Год выпуска: 2018
Производство: ТНТ, ГудСториМедиа
Жанр: Драма, комедия, мелодрама
Продолжительность: 00:23:43
Субтитры: нет
Режиссёр: Жанна Кадникова, Николай Бурлак, Михаил Соловьёв
В ролях: Ольга Баранова, Екатерина Седик, Павел Савинков, Сергей Змичеревский, Артемий Падалка, Марина Богатова, Ксения Жданова, Марта Дромашко, Александр Терехов
Описание: «Улица» — это история жителей одной из улиц спального района большого города. Школьники и студенты, домохозяйки и продавцы, олигархи и простые рабочие — здесь встретятся более 30 персонажей разного возраста и социального статуса, у каждого из них своя история. В большой Вселенной «Улицы» нет главных и второстепенных героев, здесь есть бурная жизнь с ее радостями, горестями, казусами и косяками, страхами, любовными переживаниями и трагедиями. Это история про всех нас и наших соседей.
Релиз группа:
Сэмпл: http://multi-up.com/1194523
Качество: WEBRip
Формат: AVI
Видео кодек: XviD
Аудио кодек: AC3
Видео: 720x400 (16:9), 25.000 fps, XviD build 73, 1700 Kbps, 0.23 Bits/Pixel
Аудио: 48 kHz, AC3 Dolby Digital, 2 ch, 192 Kbps
Реклама: Нет

Предыдущие и альтернативные раздачи
MI
General
Complete name : Downloads\Ulica.S.02.2018.2018.WEB-DLRip.Files-x\02. Ulica.S.02.(2018).WEB-DLRip.Files-x.avi
Format : AVI
Format/Info : Audio Video Interleave
File size : 323 MiB
Duration : 23mn 43s
Overall bit rate : 1 902 Kbps
Writing application : VirtualDubMod 1.5.10.3 | www.virtualdub-fr.org || (build 2550/release)
Writing library : VirtualDubMod build 2550/release
Video #0
ID : 0
Format : MPEG-4 Visual
Format profile : Advanced Simple@L5
Format settings, BVOP : 1
Format settings, QPel : Yes
Format settings, GMC : No warppoints
Format settings, Matrix : Default (MPEG)
Codec ID : XVID
Codec ID/Hint : XviD
Duration : 23mn 43s
Bit rate : 1 700 Kbps
Width : 720 pixels
Height : 400 pixels
Display aspect ratio : 16:9
Frame rate : 25.000 fps
Color space : YUV
Chroma subsampling : 4:2:0
Bit depth : 8 bits
Scan type : Progressive
Compression mode : Lossy
Bits/(Pixel*Frame) : 0.236
Stream size : 289 MiB (89%)
Writing library : XviD 73
Audio #1
ID : 1
Format : AC-3
Format/Info : Audio Coding 3
Mode extension : CM (complete main)
Format settings, Endianness : Big
Codec ID : 2000
Duration : 23mn 43s
Bit rate mode : Constant
Bit rate : 192 Kbps
Channel(s) : 2 channels
Channel positions : Front: L R
Sampling rate : 48.0 KHz
Bit depth : 16 bits
Compression mode : Lossy
Stream size : 32.6 MiB (10%)
Alignment : Split accross interleaves
Interleave, duration : 40 ms (1.00 video frame)
Interleave, preload duration : 500 ms
Скриншоты
Внимание! Раздача ведётся путём добавления новых серий:
(1) остановить скачивание,
(2) удалить старый торрент у себя из клиента (старые серии удалять не надо),
(3) скачать новый торрент и запустить его у себя в клиенте вместо старого, при этом указать клиенту путь в старую папку куда и должно происходить скачивание новых серий.
Ваш клиент при этом должен произвести хеширование (проверку) старой папки (если не производит сам - помогите ему сделать это), и будет докачивать только те серии которых у вас ещё нет. Старые серии при этом не удаляются, а продолжают раздаваться!
Eсли вы уже удалили старые серии, то предотвратить повторную закачку старых серий можно, отжав галочку в соответсвующих местах при запуске нового торрента. По возможности, желательно не удалять старые серии как можно дольше чтобы релизёр не столько продолжал раздавать старые серии, а смог сконцентрироваться на новых
.
Download
Чтобы скачать .torrent файл необходима регистрация
Сайт не распространяет и не хранит электронные версии произведений, а лишь предоставляет доступ к создаваемому пользователями каталогу ссылок на торрент-файлы, которые содержат только списки хеш-сумм
[Профиль]  [ЛС] 
 

CANun

Стаж: 9 лет 9 месяцев

Сообщений: 22

CANun · 16-Май-18 11:22 (спустя 1 месяц 5 дней)

[Цитировать] 

следующие серии будут в раздаче?
[Профиль]  [ЛС] 

Сибиряк777

Top Seed 05* 640r

Стаж: 9 лет 11 месяцев

Сообщений: 2871

Сибиряк777 · 16-Май-18 23:47 (спустя 12 часов)

[Цитировать] 

CANun
Будут, куда они денутся

Обновил раздачу до 20 серии.
[Профиль]  [ЛС] 

Сибиряк777

Top Seed 05* 640r

Стаж: 9 лет 11 месяцев

Сообщений: 2871

Сибиряк777 · 25-Май-18 15:51 (спустя 8 дней)

[Цитировать] 

+25
[Профиль]  [ЛС] 

Сибиряк777

Top Seed 05* 640r

Стаж: 9 лет 11 месяцев

Сообщений: 2871

Сибиряк777 · 08-Июн-18 00:37 (спустя 13 дней, ред. 08-Июн-18 00:37)

[Цитировать] 

33
[Профиль]  [ЛС] 

stas567s

Стаж: 1 год 8 месяцев

Сообщений: 3


stas567s · 11-Июн-18 18:57 (спустя 3 дня)

[Цитировать] 

Сибиряк777 писал(а):
7546609333
А скоро можно 34 серию ожидать? В соседних раздачах уже вроде появилась.
[Профиль]  [ЛС] 

Сибиряк777

Top Seed 05* 640r

Стаж: 9 лет 11 месяцев

Сообщений: 2871

Сибиряк777 · 12-Июн-18 16:27 (спустя 21 час)

[Цитировать] 

stas567s
Занет был.
Добавил 34-ю серию. Теперь все
[Профиль]  [ЛС] 

GRINDERWISCH

Стаж: 9 лет 8 месяцев

Сообщений: 356

GRINDERWISCH · 20-Июн-18 15:21 (спустя 7 дней)

[Цитировать] 

А кто поет в конце каждой серии?
[Профиль]  [ЛС] 

GRINDERWISCH

Стаж: 9 лет 8 месяцев

Сообщений: 356

GRINDERWISCH · 25-Июн-18 15:35 (спустя 5 дней)

[Цитировать] 

Сибиряк777
КАК НАСЧЕТ МУЗЫКИ В СЕРИАОЕ?
[Профиль]  [ЛС] 

Сибиряк777

Top Seed 05* 640r

Стаж: 9 лет 11 месяцев

Сообщений: 2871

Сибиряк777 · 25-Июн-18 23:31 (спустя 7 часов)

[Цитировать] 

GRINDERWISCH писал(а):
75559864Сибиряк777
КАК НАСЧЕТ МУЗЫКИ В СЕРИАОЕ?
Никак. У меня её нету. Ищите в ютубе или в вк, может тут когда нибудь ответят вам.
[Профиль]  [ЛС] 
 
Ответить
Loading...
Error