Адрес РуТрекера для пользователей РФ - MainTracker.org

Расскажи друзьям:  

Найти мужа Дарье Климовой / Серии: 1-4 из 4 (Иван Мережко) [2016, комедия, HDTVRip]

Страницы:  1

Ответить
Автор
Сообщение

Pigy

RG Русские сериалы

Стаж: 9 лет 8 месяцев

Сообщений: 2377

Pigy · 14-Апр-18 20:10 (3 месяца 2 дня назад)

Найти мужа Дарье Климовой
Год выпуска: 2016
Производство: Фаворит-фильм
Жанр: комедия
Продолжительность: ~00:50:00 серия
Субтитры: нет
Режиссёр: Иван Мережко
В ролях: Максим Леонидов, Николай Фоменко, Екатерина Гусева, Людмила Свитова, Александра Булычева, Николай Добрынин, Маргарита Бычкова, Наталья Круглова, Алексей Федькин
Описание: В 40 лет у банкирши Дарьи Климовой есть полный набор материальных благ, не хватает лишь нормальной личной жизни. На сайте знакомств под видом эстрадной певицы Клавы она знакомится с музыкантом Дэном. Договорившись о личной встрече, Дарья вместо себя отправляет свою секретаршу: невзрачную Лиду. Так же поступает и Дэн, посылая на свидание своего коллегу Фила. Как ни странно, Лида и Фил нравятся друг другу, и между ними завязывается целый роман. Тем более что у Лиды оказывается замечательный голос, и она вполне подходит быть солисткой в их музыкальной группе.

Реклама: Нет.
Кинопоиск
Все раздачи сериала
Sample
Качество: HDTVRip - olegka7373 (GeneralFilm)
Формат: AVI
Видео кодек: XviD
Аудио кодек: AC3
Видео: 720x400 (1.80:1), 25 fps, XviD build 73 ~1800 kbps avg, 0.250 bit/pixel
Аудио: 48.0 kHz, AC3 Dolby Digital, 2/0 (L,R) ch, ~ 192 kbps
MI
General
Complete name : D:\Najti muzha Dare Klimovoj.HDTVRip.GeneralFilm\01.Najti muzha Dare Klimovoj.HDTVRip.GeneralFilm.avi
Format : AVI
Format/Info : Audio Video Interleave
File size : 726 MiB
Duration : 50mn 41s
Overall bit rate : 2 003 Kbps
Video
ID : 0
Format : MPEG-4 Visual
Format profile : Advanced Simple@L5
Format settings, BVOP : 1
Format settings, QPel : No
Format settings, GMC : No warppoints
Format settings, Matrix : Custom
Codec ID : XVID
Codec ID/Hint : XviD
Duration : 50mn 41s
Bit rate : 1 800 Kbps
Width : 720 pixels
Height : 400 pixels
Display aspect ratio : 16:9
Frame rate : 25.000 fps
Color space : YUV
Chroma subsampling : 4:2:0
Bit depth : 8 bits
Scan type : Progressive
Compression mode : Lossy
Bits/(Pixel*Frame) : 0.250
Stream size : 653 MiB (90%)
Writing library : XviD 73
Audio
ID : 1
Format : AC-3
Format/Info : Audio Coding 3
Mode extension : CM (complete main)
Format settings, Endianness : Big
Codec ID : 2000
Duration : 50mn 41s
Bit rate mode : Constant
Bit rate : 192 Kbps
Channel count : 2 channels
Channel positions : Front: L R
Sampling rate : 48.0 KHz
Bit depth : 16 bits
Compression mode : Lossy
Stream size : 69.6 MiB (10%)
Alignment : Aligned on interleaves
Interleave, duration : 32 ms (0.80 video frame)
Скриншоты
Download
Чтобы скачать .torrent файл необходима регистрация
Сайт не распространяет и не хранит электронные версии произведений, а лишь предоставляет доступ к создаваемому пользователями каталогу ссылок на торрент-файлы, которые содержат только списки хеш-сумм
[Профиль]  [ЛС] 
 

profik1976

Стаж: 9 лет 2 месяца

Сообщений: 148


profik1976 · 15-Апр-18 10:23 (спустя 14 часов)

[Цитировать] 

Приятно удивлен. Очень позитивно. Хороший фильм.
[Профиль]  [ЛС] 
 
Ответить
Loading...
Error