Адрес РуТрекера для пользователей РФ - MainTracker.org

Расскажи друзьям:  

Не в деньгах счастье / Серии: 1-4 из 4 (Ольга Ланд) [2017, мелодрама, WEBRip-AVC]

Страницы:  1

Ответить
Автор
Сообщение

Pigy

RG Русские сериалы

Стаж: 9 лет 8 месяцев

Сообщений: 2386

Pigy · 15-Апр-18 20:39 (3 месяца 3 дня назад)

Не в деньгах счастье
Год выпуска: 2017
Производство: ТА «Иртыш»
Жанр: мелодрама
Продолжительность: ~00:44:00 серия
Субтитры: нет
Режиссёр: Ольга Ланд
В ролях: Евгения Лоза, Александр Никитин, Ярослав Бойко, Павел Гусаров, Мария Берсенева, Илья Оболонков, Светлана Кожемякина

Описание: Жизнь домохозяйки Виктории Невской - как ожившая рождественская картинка. У нее есть дочка Маша, сын Ник и заботливый, любящий муж Борис. Но все меняется в один день, когда муж не приходит домой, его телефон не отвечает, в офисе его тоже не видели. Через несколько дней Бориса объявляют в розыск. Вика вынуждена привыкать к новой жизни, а проблем хватает: все счета заблокированы, просрочка по кредиту, коллекторы, дочери Маше приходится оставить платные занятия теннисом, за детский садик сына платить нечем. Вика устраивается на работу в банк простой операционисткой и регулярно ходит на опознания в морг. Отсидевший за непреднамеренное убийство Павел Гусаров разыскивает свою девушку Алёну и выясняет, что в её квартире сейчас живут Невские. Павел подозревает, что к исчезновению Алёны прямое отношение имеет Борис Невский. Вместе с Викой они начинают расследование...

Реклама: Нет.
Кинопоиск
Все раздачи сериала
Sample
Качество: WEBRip-AVC - Серый1779
Формат: MKV
Видео кодек: H.264
Аудио кодек: AC3
Видео: MPEG4 AVC Video, H264, 16:9, 1024x576, 24 fps, ~1600 kbps, 0.113 bit/pixel
Аудио: AC3 Dolby Digital, 44.1 kHz, 2/0 (L,R) ch, 192 kbps
MI
General
Unique ID : 227127436989833410544321589842471659741 (0xAADF2738B59198C0AE82B58C6DA5A8DD)
Complete name : D:\Ne v dengah schaste.(2017).WEB-DLRip.(AVC).Files-x\01.Не в деньгах счастье.(2017).WEB-DLRip.(AVC).by.Серый1779.Files-x.mkv
Format : Matroska
Format version : Version 2
File size : 557 MiB
Duration : 43mn 24s
Overall bit rate : 1 793 Kbps
Encoded date : UTC 2018-04-14 18:13:34
Writing application : mkvmerge v7.8.0 ('River Man') 32bit built on Apr 3 2015 12:11:22
Writing library : libebml v1.3.1 + libmatroska v1.4.2
Video
ID : 1
Format : AVC
Format/Info : Advanced Video Codec
Format profile : High@L4.1
Format settings, CABAC : Yes
Format settings, ReFrames : 9 frames
Codec ID : V_MPEG4/ISO/AVC
Duration : 43mn 24s
Bit rate : 1 600 Kbps
Width : 1 024 pixels
Height : 576 pixels
Display aspect ratio : 16:9
Frame rate mode : Constant
Frame rate : 24.000 fps
Color space : YUV
Chroma subsampling : 4:2:0
Bit depth : 8 bits
Scan type : Progressive
Bits/(Pixel*Frame) : 0.113
Stream size : 486 MiB (87%)
Writing library : x264 core 146 r2538 121396c
Encoding settings : cabac=1 / ref=9 / deblock=1:-2:-1 / analyse=0x3:0x133 / me=umh / subme=9 / psy=1 / psy_rd=1.00:0.15 / mixed_ref=1 / me_range=32 / chroma_me=1 / trellis=2 / 8x8dct=1 / cqm=0 / deadzone=21,11 / fast_pskip=0 / chroma_qp_offset=-3 / threads=18 / lookahead_threads=3 / sliced_threads=0 / nr=0 / decimate=1 / interlaced=0 / bluray_compat=0 / constrained_intra=0 / bframes=9 / b_pyramid=2 / b_adapt=2 / b_bias=0 / direct=1 / weightb=1 / open_gop=0 / weightp=2 / keyint=250 / keyint_min=23 / scenecut=40 / intra_refresh=0 / rc=2pass / mbtree=0 / bitrate=1600 / ratetol=1.0 / qcomp=0.60 / qpmin=0 / qpmax=69 / qpstep=4 / cplxblur=20.0 / qblur=0.5 / ip_ratio=1.40 / pb_ratio=1.30 / aq=2:1.00
Default : Yes
Forced : No
Color primaries : BT.709
Transfer characteristics : BT.709
Matrix coefficients : BT.709
Audio
ID : 2
Format : AC-3
Format/Info : Audio Coding 3
Mode extension : CM (complete main)
Format settings, Endianness : Big
Codec ID : A_AC3
Duration : 43mn 24s
Bit rate mode : Constant
Bit rate : 192 Kbps
Channel count : 2 channels
Channel positions : Front: L R
Sampling rate : 44.1 KHz
Bit depth : 16 bits
Compression mode : Lossy
Stream size : 59.6 MiB (11%)
Default : Yes
Forced : No
Скриншоты
Download
Чтобы скачать .torrent файл необходима регистрация
Сайт не распространяет и не хранит электронные версии произведений, а лишь предоставляет доступ к создаваемому пользователями каталогу ссылок на торрент-файлы, которые содержат только списки хеш-сумм
[Профиль]  [ЛС] 
 
 
Ответить
Loading...
Error