Адрес РуТрекера для пользователей РФ - MainTracker.org

Расскажи друзьям:  

Не в деньгах счастье / Серии: 1-4 из 4 (Ольга Ланд) [2017, мелодрама, WEBRip]

Страницы:  1

Ответить
Автор
Сообщение

Pigy

RG Русские сериалы

Стаж: 9 лет 5 месяцев

Сообщений: 2164

Pigy · 15-Апр-18 20:46 (6 дней назад)

Не в деньгах счастье
Год выпуска: 2017
Производство: ТА «Иртыш»
Жанр: мелодрама
Продолжительность: ~00:44:00 серия
Субтитры: нет
Режиссёр: Ольга Ланд
В ролях: Евгения Лоза, Александр Никитин, Ярослав Бойко, Павел Гусаров, Мария Берсенева, Илья Оболонков, Светлана Кожемякина

Описание: Жизнь домохозяйки Виктории Невской - как ожившая рождественская картинка. У нее есть дочка Маша, сын Ник и заботливый, любящий муж Борис. Но все меняется в один день, когда муж не приходит домой, его телефон не отвечает, в офисе его тоже не видели. Через несколько дней Бориса объявляют в розыск. Вика вынуждена привыкать к новой жизни, а проблем хватает: все счета заблокированы, просрочка по кредиту, коллекторы, дочери Маше приходится оставить платные занятия теннисом, за детский садик сына платить нечем. Вика устраивается на работу в банк простой операционисткой и регулярно ходит на опознания в морг. Отсидевший за непреднамеренное убийство Павел Гусаров разыскивает свою девушку Алёну и выясняет, что в её квартире сейчас живут Невские. Павел подозревает, что к исчезновению Алёны прямое отношение имеет Борис Невский. Вместе с Викой они начинают расследование...

Реклама: Нет.
Кинопоиск
Все раздачи сериала
Sample
Качество: WEBRip - Files-x
Формат: AVI
Видео кодек: XviD
Аудио кодек: AC3
Видео: 720x400 (1.80:1), 24 fps, XviD build 73 ~1560 kbps avg, 0.227 bit/pixel
Аудио: 48.0 kHz, AC3 Dolby Digital, 2/0 (L,R) ch, ~ 192 kbps
MI
General
Complete name : D:\Не в деньгах счастье (2017).WEB-DLRip.Files-x\01.Не в деньгах счастье (2017).WEB-DLRip.Files-x.avi
Format : AVI
Format/Info : Audio Video Interleave
File size : 549 MiB
Duration : 43mn 24s
Overall bit rate : 1 769 Kbps
Writing application : VirtualDubMod 1.5.10.3 | www.virtualdub-fr.org || (build 2550/release)
Writing library : VirtualDubMod build 2550/release
Video
ID : 0
Format : MPEG-4 Visual
Format profile : Advanced Simple@L5
Format settings, BVOP : 1
Format settings, QPel : No
Format settings, GMC : No warppoints
Format settings, Matrix : Custom
Codec ID : XVID
Codec ID/Hint : XviD
Duration : 43mn 24s
Bit rate : 1 568 Kbps
Width : 720 pixels
Height : 400 pixels
Display aspect ratio : 16:9
Frame rate : 24.000 fps
Color space : YUV
Chroma subsampling : 4:2:0
Bit depth : 8 bits
Scan type : Progressive
Compression mode : Lossy
Bits/(Pixel*Frame) : 0.227
Stream size : 487 MiB (89%)
Writing library : XviD 73
Audio
ID : 1
Format : AC-3
Format/Info : Audio Coding 3
Mode extension : CM (complete main)
Format settings, Endianness : Big
Codec ID : 2000
Duration : 43mn 24s
Bit rate mode : Constant
Bit rate : 192 Kbps
Channel count : 2 channels
Channel positions : Front: L R
Sampling rate : 48.0 KHz
Bit depth : 16 bits
Compression mode : Lossy
Stream size : 59.6 MiB (11%)
Alignment : Split accross interleaves
Interleave, duration : 42 ms (1.00 video frame)
Interleave, preload duration : 500 ms
Скриншоты
Download
Чтобы скачать .torrent файл необходима регистрация
Сайт не распространяет и не хранит электронные версии произведений, а лишь предоставляет доступ к создаваемому пользователями каталогу ссылок на торрент-файлы, которые содержат только списки хеш-сумм
[Профиль]  [ЛС] 
 

Igor1948

Стаж: 7 лет 6 месяцев

Сообщений: 284

Igor1948 · 15-Апр-18 22:35 (спустя 1 час 48 мин.)

[Цитировать] 

Pigy
Спасибо!
[Профиль]  [ЛС] 

iTurtle

Стаж: 11 лет 3 месяца

Сообщений: 174


iTurtle · 20-Апр-18 19:21 (спустя 4 дня)

[Цитировать] 

Скорость 24 к/с достигнута тем, что каждый 25-й кадр просто удалён, в результате изображение дёргается каждую секунду.
[Профиль]  [ЛС] 
 
Ответить
Loading...
Error