Адрес РуТрекера для пользователей РФ - MainTracker.org

Расскажи друзьям:  

Жена с того света / Серии: 1-4 из 4 (Валерий Ибрагимов) [2018, мелодрама, WEBRip]

Страницы:  1

Ответить
Автор
Сообщение

Pigy

RG Русские сериалы

Стаж: 9 лет 5 месяцев

Сообщений: 2210

Pigy · 16-Апр-18 05:10 (10 дней назад)

Жена с того света
Год выпуска: 2018
Производство: Кинокомпания "Киевтелефильм"
Жанр: мелодрама
Продолжительность: ~00:46:00 серия
Субтитры: нет
Режиссёр: Валерий Ибрагимов
В ролях: Юлия Агафонова, Алиса Гребенщикова, Филипп Бледный, Михаил Химичев, Светлана Павлова, Игорь Петрусенко, Мария Тарасова

Описание: На работе по-крупному подставляют старшего бухгалтера Инну. Её обвиняют в краже огромной суммы. Лишь случайность спасает женщину от тюрьмы – по ошибке все считают Инну погибшей в аварии. «Смерть» показывает Инне истинное положение дел: «любимый» муж Николай изменяет ей. Женщине горько осознавать, что её предали те, кому она так доверяла, что она не может быть рядом со своими детьми: Денисом и Лизой. Ведь если Инна «воскреснет», то сразу сядет в тюрьму. Подруга – Катя подаёт ей идею: воспользоваться своим «умершим» статусом, чтобы отомстить предателям и заодно попробовать вернуть своё доброе имя.

Реклама: Нет.
Кино-театр
Все раздачи сериала
Sample
Качество: WEBRip - Files-x
Формат: AVI
Видео кодек: XviD
Аудио кодек: AC3
Видео: 720x400 (1.80:1), 25 fps, XviD build 73 ~1600 kbps avg, 0.223 bit/pixel
Аудио: 48.0 kHz, AC3 Dolby Digital, 2/0 (L,R) ch, ~ 192 kbps
MI
General
Complete name : D:\Zena.s.tovo.sveta.2018.WEBRip.Files-x\01.Zena.s.tovo.sveta.2018.WEBRip.Files-x.avi
Format : AVI
Format/Info : Audio Video Interleave
File size : 600 MiB
Duration : 46mn 20s
Overall bit rate : 1 811 Kbps
Writing application : VirtualDubMod 1.5.10.3 | www.virtualdub-fr.org || (build 2550/release)
Writing library : VirtualDubMod build 2550/release
Video
ID : 0
Format : MPEG-4 Visual
Format profile : Advanced Simple@L5
Format settings, BVOP : 1
Format settings, QPel : No
Format settings, GMC : No warppoints
Format settings, Matrix : Custom
Codec ID : XVID
Codec ID/Hint : XviD
Duration : 46mn 20s
Bit rate : 1 609 Kbps
Width : 720 pixels
Height : 400 pixels
Display aspect ratio : 16:9
Frame rate : 25.000 fps
Color space : YUV
Chroma subsampling : 4:2:0
Bit depth : 8 bits
Scan type : Progressive
Compression mode : Lossy
Bits/(Pixel*Frame) : 0.223
Stream size : 533 MiB (89%)
Writing library : XviD 73
Audio
ID : 1
Format : AC-3
Format/Info : Audio Coding 3
Mode extension : CM (complete main)
Format settings, Endianness : Big
Codec ID : 2000
Duration : 46mn 20s
Bit rate mode : Constant
Bit rate : 192 Kbps
Channel count : 2 channels
Channel positions : Front: L R
Sampling rate : 48.0 KHz
Bit depth : 16 bits
Compression mode : Lossy
Stream size : 63.6 MiB (11%)
Alignment : Split accross interleaves
Interleave, duration : 40 ms (1.00 video frame)
Interleave, preload duration : 500 ms
Скриншоты
Download
Чтобы скачать .torrent файл необходима регистрация
Сайт не распространяет и не хранит электронные версии произведений, а лишь предоставляет доступ к создаваемому пользователями каталогу ссылок на торрент-файлы, которые содержат только списки хеш-сумм
[Профиль]  [ЛС] 
 

Mironidis313

Стаж: 4 года 5 месяцев

Сообщений: 94


Mironidis313 · 16-Апр-18 11:51 (спустя 6 часов)

[Цитировать] 

КАЙФ!!!!!!!!!!!
[Профиль]  [ЛС] 

Fialka125

Стаж: 7 лет 3 месяца

Сообщений: 5


Fialka125 · 16-Апр-18 17:50 (спустя 5 часов)

[Цитировать] 

Фильм для имбицилов,ужасная игра актеров, кто может написать такое фуфло?Жаль времени .
[Профиль]  [ЛС] 

vacvvm

Стаж: 9 лет 5 месяцев

Сообщений: 1014

vacvvm · 17-Апр-18 15:48 (спустя 21 час)

[Цитировать] 

О! Кикимора в главной роли! Надо посмотреть обязательно.
[Профиль]  [ЛС] 

Fimaroli

Стаж: 6 лет 10 месяцев

Сообщений: 161


Fimaroli · 17-Апр-18 23:08 (спустя 7 часов)

[Цитировать] 

vacvvm писал(а):
75195066О! Кикимора в главной роли! Надо посмотреть обязательно.
Согласен на 100%.Мягко выразиться у меня как то не получалось,посмотрел ведь ещё вчера.Матом писать не хотел,а цензурного эпитета как то не удавалось подобрать.Точно кикимора.Из за неё еле осилил слабый сериал.Но вот что подумал.Такая отталкивающая внешность и толпы мужиков по сериалу в очередь признаваться в любви.Бред сивой кобылы.Сериал честно говоря ушел на 10 план,кикимора ужасно портила картинку.Стёр без сожаления,после просмотра.
[Профиль]  [ЛС] 

Igor1948

Стаж: 7 лет 6 месяцев

Сообщений: 283

Igor1948 · 20-Апр-18 07:17 (спустя 2 дня 8 часов)

[Цитировать] 

Pigy
Спасибо!
[Профиль]  [ЛС] 
 
Ответить
Loading...
Error