Адрес РуТрекера для пользователей РФ - MainTracker.org

Расскажи друзьям:  

Чужой / Серии: 1-24 из 24 (Георгий Даниелянц, Вадим Савиев, Петр Забелин) [2014, боевик, детектив, криминальный фильм, WEBRip-AVC]

Страницы:  1

Ответить
Автор
Сообщение

Harry Palmer

Top Seed 02* 80r

Стаж: 10 лет 2 месяца

Сообщений: 1256

Harry Palmer · 16-Апр-18 10:55 (3 месяца назад)

Чужой
Год выпуска: 2014
Производство: ООО "Форвард-Фильм"
Жанр: боевик, детектив, криминальный фильм
Продолжительность: 24 x ~ 00:45:00
Субтитры: нет
Режиссёр: Георгий Даниелянц, Вадим Савиев, Петр Забелин
В ролях: Сергей Горобченко, Сергей Кошонин, Владимир Постников, Анна Донченко, Валерия Сухачева, Александр Тараньжин, Мария Зимина (II), Александра Большакова, Константин Фильченков, Андрей Лёвин, Дмитрий Паламарчук, Денис Горин, Максим Блинов, Екатерина Зорина, Дамир Маминов, Елена Липец, Василий Кортуков, Олег Ширшин, Филипп Могильницкий, Наталья Андреева, Андрей Бабенко, Дмитрий Аверин, Инна Орехова, Игорь Качаев, Сергей Интяков, Дмитрий Кузеняткин, Надежда Черных, Борис Хасанов, Константин Хасанов, Алексей Рассоховатский, Василий Шевцов, Валерий Полетаев, Сергей Романюк (II), Роман Грибков, Николай Колосов, Владимир Смилянец, Вадим Франчук, Мария Шустрова, Илья Савельев, Дмитрий Лебедев (III), Сергей Красовский (II), Кира Кауфман, Антон Багров, Сергей Колос, Юрий Филиппов (II), Сергей Харитонов, Александр Лисицын, Илья Власов (II), Андрей Вергелис, Владимир Мойковский, Георгий Мещеряков, Ольга Альбанова, Наталья Индейкина, Ирина Ларионова, Никита Хозяинов, Андрей Обарухин, Руслан Артюхов, Фёдор Гукасян, Артём Анчуков, Дмитрий Макеев, Андрей Абрамов, Виктор Бабич, Юрий Ковалёв, Игорь Сергеев (II), Иван Батарев, Эдуард Сергиеня, Александр Овчинников (III), Георгий Поздняков, Филипп Чевычелов, Ольга Кожевникова
Описание: Главный герой сериала, Михаил Аристов, после развода принимает решение вернуться на родину из Австралии, где работал рейнджером в национальном парке. Он абсолютно не представляет себе реалий жизни в современной России. Он привык к обществу равных перед законом людей, к полиции, которая это равенство защищает, к наказанию преступников, невзирая на персоналии. В результате случайного уличного конфликта на Аристова возбуждают уголовное дело. Единственный, кто может ему помочь – начальник уголовного розыска одного из районов полковник Водяной, отчим старого школьного друга. В качестве ответной услуги, Водяной предлагает Аристову поработать в качестве его агента, став водителем салона элитного «эскорта». Он должен среди девушек, работающих в салоне, вычислить проститутку, связанную с преступниками, совершившим налет на особняк олигарха Акулина. Аристов и не представляет, к каким глобальным изменениям в его жизни, к каким драматическим событиям приведет его эта просьба.
Реклама: Нет
Сэмпл: http://multi-up.com/1194673
Качество: WEBRip-AVC
Формат: MKV
Видео кодек: H.264
Аудио кодек: AC3
Видео: MPEG-4 (AVC), 720x400, 25 fps, ~1600 kbps, 0.22 bit/pixel
Аудио: AC3, 48.0 kHz, 2 ch, 192 Kbps
MI
General
Unique ID : 222360275389225996611681815325056709850 (0xA74908020F4FE258B11EF2056F9834DA)
Complete name : Чужой (01 сер.).mkv
Format : Matroska
Format version : Version 2
File size : 595 MiB
Duration : 46 min 21 s
Overall bit rate : 1 794 kb/s
Encoded date : UTC 2018-04-09 10:33:08
Writing application : mkvmerge v7.8.0 ('River Man') 32bit built on Apr 3 2015 12:11:22
Writing library : libebml v1.3.1 + libmatroska v1.4.2
Video
ID : 1
Format : AVC
Format/Info : Advanced Video Codec
Format profile : High@L3
Format settings, CABAC : Yes
Format settings, ReFrames : 6 frames
Codec ID : V_MPEG4/ISO/AVC
Duration : 46 min 21 s
Bit rate : 1 600 kb/s
Width : 720 pixels
Height : 400 pixels
Display aspect ratio : 16:9
Frame rate mode : Constant
Frame rate : 25.000 FPS
Color space : YUV
Chroma subsampling : 4:2:0
Bit depth : 8 bits
Scan type : Progressive
Bits/(Pixel*Frame) : 0.222
Stream size : 531 MiB (89%)
Writing library : x264 core 152 r2851 ba24899
Encoding settings : cabac=1 / ref=6 / deblock=1:0:0 / analyse=0x3:0x113 / me=umh / subme=8 / psy=1 / psy_rd=1.00:0.00 / mixed_ref=1 / me_range=24 / chroma_me=1 / trellis=1 / 8x8dct=1 / cqm=0 / deadzone=21,11 / fast_pskip=1 / chroma_qp_offset=-2 / threads=8 / lookahead_threads=1 / sliced_threads=0 / nr=0 / decimate=1 / interlaced=0 / bluray_compat=0 / stitchable=1 / constrained_intra=0 / bframes=6 / b_pyramid=2 / b_adapt=1 / b_bias=0 / direct=3 / weightb=1 / open_gop=0 / weightp=2 / keyint=250 / keyint_min=25 / scenecut=40 / intra_refresh=0 / rc_lookahead=40 / rc=2pass / mbtree=1 / bitrate=1600 / ratetol=1.0 / qcomp=0.60 / qpmin=0 / qpmax=69 / qpstep=4 / cplxblur=20.0 / qblur=0.5 / ip_ratio=1.40 / aq=1:1.00
Default : Yes
Forced : No
Audio
ID : 2
Format : AC-3
Format/Info : Audio Coding 3
Format settings, Endianness : Big
Codec ID : A_AC3
Duration : 46 min 21 s
Bit rate mode : Constant
Bit rate : 192 kb/s
Channel(s) : 2 channels
Channel positions : Front: L R
Sampling rate : 48.0 kHz
Frame rate : 31.250 FPS (1536 spf)
Bit depth : 16 bits
Compression mode : Lossy
Stream size : 63.7 MiB (11%)
Service kind : Complete Main
Default : Yes
Forced : No
Скриншоты
Предыдущие и альтернативные раздачи
Download
Чтобы скачать .torrent файл необходима регистрация
Сайт не распространяет и не хранит электронные версии произведений, а лишь предоставляет доступ к создаваемому пользователями каталогу ссылок на торрент-файлы, которые содержат только списки хеш-сумм
[Профиль]  [ЛС] 
 

Сударыня

Moderator gray

Стаж: 11 лет 2 месяца

Сообщений: 10956

Сударыня · 16-Апр-18 13:12 (спустя 2 часа 16 мин.)

[Цитировать] 

Harry Palmer
Не заметили? http://1.maintracker.org/forum/viewtopic.php?t=4878354
[Профиль]  [ЛС] 

Harry Palmer

Top Seed 02* 80r

Стаж: 10 лет 2 месяца

Сообщений: 1256

Harry Palmer · 16-Апр-18 13:17 (спустя 4 мин.)

[Цитировать] 

Сударыня писал(а):
75188633Не заметили?
Сравнения что-ли сделать?
[Профиль]  [ЛС] 

Сударыня

Moderator gray

Стаж: 11 лет 2 месяца

Сообщений: 10956

Сударыня · 16-Апр-18 13:39 (спустя 22 мин.)

[Цитировать] 

Harry Palmer писал(а):
75188650Сравнения что-ли сделать?
Ну да.
[Профиль]  [ЛС] 

Harry Palmer

Top Seed 02* 80r

Стаж: 10 лет 2 месяца

Сообщений: 1256

Harry Palmer · 16-Апр-18 14:15 (спустя 36 мин.)

[Цитировать] 

Сударыня писал(а):
75188736Ну да.
Сравнение: http://www.framecompare.com/image-compare/screenshotcomparison/PKPNNN8X Да там ещё, судя по хронометражу, порезано всё конкретно...
[Профиль]  [ЛС] 

Yrei Kandov

Стаж: 5 лет 5 месяцев

Сообщений: 45

Yrei Kandov · 17-Апр-18 22:07 (спустя 1 день 7 часов)

[Цитировать] 

Первые четыре серии - супер! Дальше - Бред!
[Профиль]  [ЛС] 
 
Ответить
Loading...
Error