Адрес РуТрекера для пользователей РФ - 11.MainTracker.org

Расскажи друзьям:  

Первый парень на деревне / Серии: 1-4 из 4 (Николай Каптан) [2017, Комедия, WEBRip]

Страницы:  1

Ответить
Автор
Сообщение

Сибиряк777

Top Seed 05* 640r

Стаж: 10 лет 9 месяцев

Сообщений: 3248

Сибиряк777 · 03-Май-18 16:55 (1 год 1 месяц назад)

Первый парень на деревне
Год выпуска: 2017
Производство: PRO TV PRODUCTION
Жанр: Комедия
Продолжительность: 00:54:56
Субтитры: нет
Режиссёр: Николай Каптан
В ролях: Валентин Томусяк, Евгения Нохрина, Семён Стругачёв, Татьяна Орлова, Армен Джигарханян, Ольга Прокофьева, Светлана Пермякова, Эвелина Сакуро, Михаил Кукуюк, Леся Самаева, Андрей Пономаренко, Александр Данильченко, Ёла Санько, Ирина Токарчук, Сергей Коршиков, Павел Тупиков, Игорь Гнездилов, Инна Приходько, Алиса Гурьева, Юлия Гершаник, Валерий Астахов, Виталий Челканов
Описание: Лейтенант полиции Михаил Ермаков — честный и неподкупный страж порядка, который снискал славу не только своим особым подходом к работе, но и равнодушием к алкоголю. Принципиальность сотрудника полиции становится поводом для его перевода из столицы в глухую деревню, где ему предстоит жить в доме первой красавицы Насти. Несмотря на любовь с первого взгляда, жить и работать Михаилу нелегко. Местные жители то и дело норовят угостить лейтенанта горячительным, даже участковый Грищенко постоянно предпринимает попытки отвлечь московского специалиста от исполнения обязанностей. Настя предлагает Михаилу собрать вещи и вернуться в столицу, но Ермаков не намерен сдаваться так просто…
Релиз группа:
Сэмпл: http://multi-up.com/1196991
Качество: WEBRip
Формат: AVI
Видео кодек: XviD
Аудио кодек: AC3
Видео: 720x400 (16:9), 25.000 fps, XviD build 73, 1460 Kbps, 0.20 Bits/Pixel
Аудио: 48 kHz, AC3 Dolby Digital, 2 ch, 192 Kbps
Реклама: Нет
MI
C:\Users\Andreas\Downloads\Первый парень на деревне.2017.WEB-DLRip.Files-x\01.Первый парень на деревне.2017.WEB-DLRip.Files-x.avi
General
Complete name : C:\Users\Andreas\Downloads\Первый парень на деревне.2017.WEB-DLRip.Files-x\01.Первый парень на деревне.2017.WEB-DLRip.Files-x.avi
Format : AVI
Format/Info : Audio Video Interleave
File size : 653 MiB
Duration : 54mn 56s
Overall bit rate : 1 662 Kbps
Writing application : VirtualDubMod 1.5.10.3 | www.virtualdub-fr.org || (build 2550/release)
Writing library : VirtualDubMod build 2550/release
Video #0
ID : 0
Format : MPEG-4 Visual
Format profile : Advanced [email protected]
Format settings, BVOP : 1
Format settings, QPel : No
Format settings, GMC : No warppoints
Format settings, Matrix : Custom
Codec ID : XVID
Codec ID/Hint : XviD
Duration : 54mn 56s
Bit rate : 1 460 Kbps
Width : 720 pixels
Height : 400 pixels
Display aspect ratio : 16:9
Frame rate : 25.000 fps
Color space : YUV
Chroma subsampling : 4:2:0
Bit depth : 8 bits
Scan type : Progressive
Compression mode : Lossy
Bits/(Pixel*Frame) : 0.203
Stream size : 574 MiB (88%)
Writing library : XviD 73
Audio #1
ID : 1
Format : AC-3
Format/Info : Audio Coding 3
Mode extension : CM (complete main)
Format settings, Endianness : Big
Codec ID : 2000
Duration : 54mn 56s
Bit rate mode : Constant
Bit rate : 192 Kbps
Channel(s) : 2 channels
Channel positions : Front: L R
Sampling rate : 48.0 KHz
Bit depth : 16 bits
Compression mode : Lossy
Stream size : 75.5 MiB (12%)
Alignment : Split accross interleaves
Interleave, duration : 40 ms (1.00 video frame)
Interleave, preload duration : 500 ms
Скриншоты
Предыдущие и альтернативные раздачи
Download
Чтобы скачать .torrent файл необходима регистрация
Сайт не распространяет и не хранит электронные версии произведений, а лишь предоставляет доступ к создаваемому пользователями каталогу ссылок на торрент-файлы, которые содержат только списки хеш-сумм
[Профиль]  [ЛС] 
 

Xtraktor

Стаж: 8 лет 4 месяца

Сообщений: 50


Xtraktor · 04-Май-18 12:45 (спустя 19 часов)

Актеры против алкоголя.
[Профиль]  [ЛС] 

krendel-08

Стаж: 9 лет 7 месяцев

Сообщений: 275


krendel-08 · 27-Май-18 19:44 (спустя 23 дня, ред. 27-Май-18 19:44)

А ничего, кст .. Простенько, без претензий, но вполне со вкусом.
Периодически ржач накатывал.
Всевозможные сценки, которые на ускоренном - кайф.
Персонажи все в жилу!
PS^ вспомнился "Зеленый фургон"
[Профиль]  [ЛС] 

orgishe

Стаж: 11 лет 7 месяцев

Сообщений: 26


orgishe · 30-Дек-18 13:37 (спустя 7 месяцев)

впечатление что фильм безжалостно почикали
[Профиль]  [ЛС] 

artdes2005

Стаж: 9 лет

Сообщений: 154

artdes2005 · 11-Янв-19 17:09 (спустя 12 дней)

Когда совместно-украинское производство - всегда вот такая белиберда получается. Отдельные типажи - хороши, а так: полнейшая муть, даже на перемотке.
[Профиль]  [ЛС] 
 
Ответить
Loading...
Error