Посольство / Серии: 1-14 из 14 (Артем Аксененко) [2018, драма, криминал, WEBRip]

Страницы:  1

Ответить
Автор
Сообщение

Pigy

RG Русские сериалы

Стаж: 9 лет 11 месяцев

Сообщений: 3134

Pigy · 08-Май-18 02:56 (5 месяцев 14 дней назад, ред. 12-Май-18 15:38)

Посольство
Год выпуска: 2018
Производство: Киностудия «Медведь» по заказу телеканала НТВ
Жанр: драма, криминал
Продолжительность: ~00:40:00 серия
Субтитры: нет
Режиссёр: Артем Аксененко
В ролях: Игорь Ливанов, Гела Месхи, Виталий Кищенко, Виктория Толстоганова, Юлия Ауг, Илья Ермолов, Сергей Комаров, Сергей Апрельский, Анна Андрусенко, Дмитрий Фрид, Виктория Соловьёва, Бесо Гатаев, Диана Пожарская, Мартиньш Вилсонс
Описание: Одна из стран восточной Европы находится на пороге принятия «антирусского пакета», её активно подталкивают к этому власти США и Великобритании. Необходима провокация, чтобы все население Страны поддержало своё правительство в борьбе с Россией. История начинается с того, что в одном из столичных баров местные спецслужбы задерживают первого секретаря российского посольства Геннадия Веденеева (Гела Месхи) с дипломатическим кейсом, набитым наркотиками. Событие моментально приобретает масштаб главного международного скандала. Теперь команде российских дипломатов во главе с Алексеем Прокофьевым (Игорь Ливанов) предстоит не только оперативно выяснить, кто и для чего сплёл такую сеть интриг вокруг российского посольства, но и разобраться в назревающем международном конфликте.

Реклама: Нет.
Кинопоиск
Все раздачи сериала
Sample
Качество: WEBRip
Формат: AVI
Видео кодек: XviD
Аудио кодек: AC3
Видео: 720x304 (2.35:1), 25 fps, XviD build 73 ~1800 kbps avg, 0.328 bit/pixel
Аудио: 48.0 kHz, AC3 Dolby Digital, 2/0 (L,R) ch, ~ 192 kbps
Внимание! Раздача ведётся путём добавления новых серий
Раздача ведётся путём добавления новых серий, при каждом добавлении создаётся новый торрент. Чтобы начать докачку новой серии, пользователям необходимо сделать следующее:
- Остановить скачивание.
- Удалить старый торрент у себя из клиента (старые серии удалять не надо).
- Скачать новый торрент и запустить его у себя в клиенте вместо старого, при этом указать клиенту путь в старую папку куда и должно происходить скачивание новых серий.
Ваш клиент при этом должен произвести хеширование (проверку) старой папки (если не производит сам - помогите ему сделать это), и будет докачивать только те серии которых у вас ещё нет. Старые серии при этом не удаляются, а продолжают раздаваться!
Если вы уже удалили старые серии, то предотвратить повторную закачку старых серий можно, отжав галочку в соответствующих местах при запуске нового торрента. По возможности, желательно не удалять старые серии как можно дольше, чтобы релизер не столько продолжал раздавать старые серии, а смог сконцентрироваться на новых.
MI
General
Complete name : D:\Посольство 2018\Posolstvo.(01-03.seriya).2018.WEBRip.avi
Format : AVI
Format/Info : Audio Video Interleave
File size : 1.60 GiB
Duration : 1h 54mn
Overall bit rate : 1 997 Kbps
Writing application : VirtualDubMod 1.5.10.3 | www.virtualdub-fr.org || (build 2550/release)
Writing library : VirtualDubMod build 2550/release
Video
ID : 0
Format : MPEG-4 Visual
Format profile : Advanced [email protected]
Format settings, BVOP : 1
Format settings, QPel : No
Format settings, GMC : No warppoints
Format settings, Matrix : Default (H.263)
Codec ID : XVID
Codec ID/Hint : XviD
Duration : 1h 54mn
Bit rate : 1 795 Kbps
Width : 720 pixels
Height : 304 pixels
Display aspect ratio : 2.35:1
Frame rate : 25.000 fps
Color space : YUV
Chroma subsampling : 4:2:0
Bit depth : 8 bits
Scan type : Progressive
Compression mode : Lossy
Bits/(Pixel*Frame) : 0.328
Stream size : 1.44 GiB (90%)
Writing library : XviD 1.2.1 (UTC 2008-12-04)
Audio
ID : 1
Format : AC-3
Format/Info : Audio Coding 3
Mode extension : CM (complete main)
Format settings, Endianness : Big
Codec ID : 2000
Duration : 1h 54mn
Bit rate mode : Constant
Bit rate : 192 Kbps
Channel count : 2 channels
Channel positions : Front: L R
Sampling rate : 48.0 KHz
Bit depth : 16 bits
Compression mode : Lossy
Stream size : 157 MiB (10%)
Alignment : Split accross interleaves
Interleave, duration : 40 ms (1.00 video frame)
Interleave, preload duration : 500 ms
Скриншоты
Download
Чтобы скачать .torrent файл необходима регистрация
Сайт не распространяет и не хранит электронные версии произведений, а лишь предоставляет доступ к создаваемому пользователями каталогу ссылок на торрент-файлы, которые содержат только списки хеш-сумм
[Профиль]  [ЛС] 
 

delhero

Стаж: 9 лет 4 месяца

Сообщений: 336

delhero · 16-Май-18 09:28 (спустя 8 дней, ред. 16-Май-18 09:28)

[Цитировать] 

Как сериал? Основано на реальных событиях или "кокс всему виной"?
[Профиль]  [ЛС] 

Invented Insect

Стаж: 10 лет 9 месяцев

Сообщений: 1635

Invented Insect · 16-Май-18 12:51 (спустя 3 часа)

[Цитировать] 

delhero писал(а):
75360072Основано на реальных событиях или "кокс всему виной"?
Походу, всему виной кровавая гэбня сотоварищи
[Профиль]  [ЛС] 

runner

Стаж: 11 лет 9 месяцев

Сообщений: 2


runner · 19-Май-18 13:49 (спустя 3 дня)

[Цитировать] 

Раздающему спасибо.
Посмотрел первые три серии, более воспаленного бреда я ещё не видел. Одно слово, НТВ
[Профиль]  [ЛС] 

kompoz74

Стаж: 7 лет 9 месяцев

Сообщений: 88

kompoz74 · 05-Июн-18 06:04 (спустя 16 дней)

[Цитировать] 

Бред в стиле позднего совка.
[Профиль]  [ЛС] 

galakt59

Стаж: 8 лет 2 месяца

Сообщений: 1


galakt59 · 14-Июн-18 22:23 (спустя 9 дней)

[Цитировать] 

delhero писал(а):
75360072Как сериал? Основано на реальных событиях или "кокс всему виной"?
Тут самолеты сбивают, а вы про какой то чемодан....
[Профиль]  [ЛС] 

Doink9

Стаж: 9 лет 8 месяцев

Сообщений: 32


Doink9 · 03-Июл-18 21:27 (спустя 18 дней, ред. 03-Июл-18 21:27)

[Цитировать] 

Тут админы есть?!Вы считаете спам отзывами?!
Господа,был бы благодарен,думаю не только я,если бы вы свой негатив оставляли в другом месте.
[Профиль]  [ЛС] 

frecords72

Стаж: 9 лет 11 месяцев

Сообщений: 479

frecords72 · 03-Июл-18 22:36 (спустя 1 час 9 мин.)

[Цитировать] 

kompoz74 писал(а):
75462206Бред в стиле позднего совка.
Который плохо кончил.
[Профиль]  [ЛС] 

A1968

Стаж: 7 лет 10 месяцев

Сообщений: 15


A1968 · 15-Авг-18 11:53 (спустя 1 месяц 11 дней)

[Цитировать] 

Бредятина полнейшая, работника консульства как какого то барыгу хватают посреди города просто так, предъявляют ему какой то чемодан с наркотой, который вообще в стороне стоял, без видео доказательства, вешают ярлык наркоторговца, садят в тюрягу, где сидят обычные заключенные, ни адвоката, ни сотрудника посольства не вызывают. Посол просто сидит на попе ровно, сопли жует, не предпринимает никаких действий... Бред несусветный. Кто еще на такое деньги выделяет интересно?
[Профиль]  [ЛС] 

cdbyjvfnrf

Стаж: 4 года 6 месяцев

Сообщений: 28


cdbyjvfnrf · 15-Авг-18 19:24 (спустя 7 часов)

[Цитировать] 

Полный отстой по смыслу и содержанию !
[Профиль]  [ЛС] 

Piligrim20veka

Стаж: 10 лет 3 месяца

Сообщений: 19

Piligrim20veka · 24-Авг-18 14:16 (спустя 8 дней)

[Цитировать] 

Надо посмотреть, раз ругают мои сограждане!
[Профиль]  [ЛС] 

.VIKA.

Стаж: 8 лет 5 месяцев

Сообщений: 526

.VIKA. · 14-Сен-18 09:09 (спустя 20 дней)

[Цитировать] 

хороший сериал , спасибо :)))
[Профиль]  [ЛС] 

VladRost

Стаж: 8 лет 7 месяцев

Сообщений: 256


VladRost · 30-Сен-18 17:02 (спустя 16 дней)

[Цитировать] 

Хрень какая-то. Недосмотрел.
Какаие-то прибалты (намек на них) арестовывают дипломатически неприкосновенного чела нашего и наши проглатывают.
Возможно там и будет что= то еще на половине второй серии это надоело.
[Профиль]  [ЛС] 
 
Ответить
Loading...
Error