Адрес РуТрекера для пользователей РФ - MainTracker.org

Расскажи друзьям:  

Посольство / Серии: 1-14 из 14 (Артем Аксененко) [2018, драма, криминал, WEBRip]

Страницы:  1

Ответить
Автор
Сообщение

Pigy

RG Русские сериалы

Стаж: 9 лет 6 месяцев

Сообщений: 2332

Pigy · 08-Май-18 02:56 (19 дней назад, ред. 12-Май-18 15:38)

Посольство
Год выпуска: 2018
Производство: Киностудия «Медведь» по заказу телеканала НТВ
Жанр: драма, криминал
Продолжительность: ~00:40:00 серия
Субтитры: нет
Режиссёр: Артем Аксененко
В ролях: Игорь Ливанов, Гела Месхи, Виталий Кищенко, Виктория Толстоганова, Юлия Ауг, Илья Ермолов, Сергей Комаров, Сергей Апрельский, Анна Андрусенко, Дмитрий Фрид, Виктория Соловьёва, Бесо Гатаев, Диана Пожарская, Мартиньш Вилсонс
Описание: Одна из стран восточной Европы находится на пороге принятия «антирусского пакета», её активно подталкивают к этому власти США и Великобритании. Необходима провокация, чтобы все население Страны поддержало своё правительство в борьбе с Россией. История начинается с того, что в одном из столичных баров местные спецслужбы задерживают первого секретаря российского посольства Геннадия Веденеева (Гела Месхи) с дипломатическим кейсом, набитым наркотиками. Событие моментально приобретает масштаб главного международного скандала. Теперь команде российских дипломатов во главе с Алексеем Прокофьевым (Игорь Ливанов) предстоит не только оперативно выяснить, кто и для чего сплёл такую сеть интриг вокруг российского посольства, но и разобраться в назревающем международном конфликте.

Реклама: Нет.
Кинопоиск
Все раздачи сериала
Sample
Качество: WEBRip
Формат: AVI
Видео кодек: XviD
Аудио кодек: AC3
Видео: 720x304 (2.35:1), 25 fps, XviD build 73 ~1800 kbps avg, 0.328 bit/pixel
Аудио: 48.0 kHz, AC3 Dolby Digital, 2/0 (L,R) ch, ~ 192 kbps
Внимание! Раздача ведётся путём добавления новых серий
Раздача ведётся путём добавления новых серий, при каждом добавлении создаётся новый торрент. Чтобы начать докачку новой серии, пользователям необходимо сделать следующее:
- Остановить скачивание.
- Удалить старый торрент у себя из клиента (старые серии удалять не надо).
- Скачать новый торрент и запустить его у себя в клиенте вместо старого, при этом указать клиенту путь в старую папку куда и должно происходить скачивание новых серий.
Ваш клиент при этом должен произвести хеширование (проверку) старой папки (если не производит сам - помогите ему сделать это), и будет докачивать только те серии которых у вас ещё нет. Старые серии при этом не удаляются, а продолжают раздаваться!
Если вы уже удалили старые серии, то предотвратить повторную закачку старых серий можно, отжав галочку в соответствующих местах при запуске нового торрента. По возможности, желательно не удалять старые серии как можно дольше, чтобы релизер не столько продолжал раздавать старые серии, а смог сконцентрироваться на новых.
MI
General
Complete name : D:\Посольство 2018\Posolstvo.(01-03.seriya).2018.WEBRip.avi
Format : AVI
Format/Info : Audio Video Interleave
File size : 1.60 GiB
Duration : 1h 54mn
Overall bit rate : 1 997 Kbps
Writing application : VirtualDubMod 1.5.10.3 | www.virtualdub-fr.org || (build 2550/release)
Writing library : VirtualDubMod build 2550/release
Video
ID : 0
Format : MPEG-4 Visual
Format profile : Advanced Simple@L5
Format settings, BVOP : 1
Format settings, QPel : No
Format settings, GMC : No warppoints
Format settings, Matrix : Default (H.263)
Codec ID : XVID
Codec ID/Hint : XviD
Duration : 1h 54mn
Bit rate : 1 795 Kbps
Width : 720 pixels
Height : 304 pixels
Display aspect ratio : 2.35:1
Frame rate : 25.000 fps
Color space : YUV
Chroma subsampling : 4:2:0
Bit depth : 8 bits
Scan type : Progressive
Compression mode : Lossy
Bits/(Pixel*Frame) : 0.328
Stream size : 1.44 GiB (90%)
Writing library : XviD 1.2.1 (UTC 2008-12-04)
Audio
ID : 1
Format : AC-3
Format/Info : Audio Coding 3
Mode extension : CM (complete main)
Format settings, Endianness : Big
Codec ID : 2000
Duration : 1h 54mn
Bit rate mode : Constant
Bit rate : 192 Kbps
Channel count : 2 channels
Channel positions : Front: L R
Sampling rate : 48.0 KHz
Bit depth : 16 bits
Compression mode : Lossy
Stream size : 157 MiB (10%)
Alignment : Split accross interleaves
Interleave, duration : 40 ms (1.00 video frame)
Interleave, preload duration : 500 ms
Скриншоты
Download
Чтобы скачать .torrent файл необходима регистрация
Сайт не распространяет и не хранит электронные версии произведений, а лишь предоставляет доступ к создаваемому пользователями каталогу ссылок на торрент-файлы, которые содержат только списки хеш-сумм
[Профиль]  [ЛС] 
 

delhero

Стаж: 9 лет

Сообщений: 316

delhero · 16-Май-18 09:28 (спустя 8 дней, ред. 16-Май-18 09:28)

[Цитировать] 

Как сериал? Основано на реальных событиях или "кокс всему виной"?
[Профиль]  [ЛС] 

Invented Insect

Стаж: 10 лет 4 месяца

Сообщений: 1491

Invented Insect · 16-Май-18 12:51 (спустя 3 часа)

[Цитировать] 

delhero писал(а):
75360072Основано на реальных событиях или "кокс всему виной"?
Походу, всему виной кровавая гэбня сотоварищи
[Профиль]  [ЛС] 

Гогени

Стаж: 6 лет 1 месяц

Сообщений: 13


Гогени · 16-Май-18 23:11 (спустя 10 часов)

[Цитировать] 

...опять ты, жук навозный ... нечего смотреть, как обычно, ватная зомби-хрень... - руския самыи умныя, а фсе астальныя геи и неданоски... ура, за родину, за сталина...
[Профиль]  [ЛС] 

Invented Insect

Стаж: 10 лет 4 месяца

Сообщений: 1491

Invented Insect · 17-Май-18 06:07 (спустя 6 часов, ред. 17-Май-18 06:07)

[Цитировать] 

Гогени, вот чего ты хочешь? Радоваться жизни? Так радуйся пока.
Гогени писал(а):
75363581а фсе астальныя геи и неданоски...
Ну, не без этого.
[Профиль]  [ЛС] 

firemen01

Стаж: 10 лет 3 месяца

Сообщений: 45


firemen01 · 17-Май-18 17:25 (спустя 11 часов)

[Цитировать] 

так а откуда наркота в дип. кейсе взялась?
[Профиль]  [ЛС] 

runner

Стаж: 11 лет 4 месяца

Сообщений: 2


runner · 19-Май-18 13:49 (спустя 1 день 20 часов)

[Цитировать] 

Раздающему спасибо.
Посмотрел первые три серии, более воспаленного бреда я ещё не видел. Одно слово, НТВ
[Профиль]  [ЛС] 

transek

Стаж: 5 лет 2 месяца

Сообщений: 25


transek · 19-Май-18 17:52 (спустя 4 часа)

[Цитировать] 

Значит, надо качать и смотреть! Обязательно.
[Профиль]  [ЛС] 

Shamiel

Стаж: 8 лет 7 месяцев

Сообщений: 15


Shamiel · 19-Май-18 18:06 (спустя 14 мин.)

[Цитировать] 

firemen01 писал(а):
75366845так а откуда наркота в дип. кейсе взялась?
Загуглите "кокаиновый скандал", это не кейс был, а рейс.
[Профиль]  [ЛС] 

sazrajai

Стаж: 8 лет 3 месяца

Сообщений: 452


sazrajai · 22-Май-18 18:58 (спустя 3 дня)

[Цитировать] 

Отличнейший сериал!!!!!!!!!!!
[Профиль]  [ЛС] 
 
Ответить
Loading...
Error