Когда солнце взойдет / Серии: 1-4 из 4 (Евгений Семенов) [2018, мелодрама, WEBRip]

Страницы:  1

Ответить
Автор
Сообщение

Pigy

RG Русские сериалы

Стаж: 9 лет 11 месяцев

Сообщений: 3134

Pigy · 13-Май-18 00:30 (5 месяцев 10 дней назад)

Когда солнце взойдет
Год выпуска: 2018
Производство: Кинокомпания Русское
Жанр: мелодрама
Продолжительность: ~00:45:00 серия
Субтитры: нет
Режиссёр: Евгений Семенов
В ролях: Евгения Осипова, Даниил Спиваковский, Юлия Силаева, Сергей Котюх, Елена Валюшкина, Александр Асташёнок, Нина Андронаки, Евгений Березовский, Павел Юлку
Описание: Рита и Игорь — врачи, прекрасная пара. Ему за 50, ей под 30. У них значительная разница в возрасте, но отношения их гармоничны, они вместе работают, между ними царит полное взаимопонимание. Их браком невозможно не любоваться, настолько они внимательны друг к другу, воспринимая любые проблемы с юмором. Рита тщательно оберегает здоровье своего мужа, и это — постоянный источник шуток с его стороны. Но никто не знает, что их отношения не узаконены.

Реклама: Нет.
Кинопоиск
Все раздачи сериала
Sample
Качество: WEBRip - Files-x
Формат: AVI
Видео кодек: XviD
Аудио кодек: AC3
Видео: 720x400 (1.80:1), 25 fps, XviD build 73 ~1970 kbps avg, 0.274 bit/pixel
Аудио: 48.0 kHz, AC3 Dolby Digital, 2/0 (L,R) ch, ~ 192 kbps
MI
General
Complete name : D:\Когда солнце взойдет (2018).WEB-DLRip.Files-x\1.Когда солнце взойдет (2018).WEB-DLRip.Files-x.avi
Format : AVI
Format/Info : Audio Video Interleave
File size : 1.36 GiB
Duration : 1h 29mn
Overall bit rate : 2 176 Kbps
Writing application : VirtualDubMod 1.5.10.3 | www.virtualdub-fr.org || (build 2550/release)
Writing library : VirtualDubMod build 2550/release
Video
ID : 0
Format : MPEG-4 Visual
Format profile : Advanced [email protected]
Format settings, BVOP : 1
Format settings, QPel : No
Format settings, GMC : No warppoints
Format settings, Matrix : Custom
Codec ID : XVID
Codec ID/Hint : XviD
Duration : 1h 29mn
Bit rate : 1 974 Kbps
Width : 720 pixels
Height : 400 pixels
Display aspect ratio : 16:9
Frame rate : 25.000 fps
Color space : YUV
Chroma subsampling : 4:2:0
Bit depth : 8 bits
Scan type : Progressive
Compression mode : Lossy
Bits/(Pixel*Frame) : 0.274
Stream size : 1.24 GiB (91%)
Writing library : XviD 73
Audio
ID : 1
Format : AC-3
Format/Info : Audio Coding 3
Mode extension : CM (complete main)
Format settings, Endianness : Big
Codec ID : 2000
Duration : 1h 29mn
Bit rate mode : Constant
Bit rate : 192 Kbps
Channel count : 2 channels
Channel positions : Front: L R
Sampling rate : 48.0 KHz
Bit depth : 16 bits
Compression mode : Lossy
Stream size : 123 MiB (9%)
Alignment : Split accross interleaves
Interleave, duration : 40 ms (1.00 video frame)
Interleave, preload duration : 500 ms
Скриншоты
Download
Чтобы скачать .torrent файл необходима регистрация
Сайт не распространяет и не хранит электронные версии произведений, а лишь предоставляет доступ к создаваемому пользователями каталогу ссылок на торрент-файлы, которые содержат только списки хеш-сумм
[Профиль]  [ЛС] 
 

Igor1948

Стаж: 8 лет

Сообщений: 322

Igor1948 · 14-Май-18 10:49 (спустя 1 день 10 часов)

[Цитировать] 

Pigy
[Профиль]  [ЛС] 

SEGA59

Стаж: 8 лет 6 месяцев

Сообщений: 294

SEGA59 · 14-Май-18 23:05 (спустя 12 часов)

[Цитировать] 

"но никто не знает, что их отношения не узаконены"!!!... какой ужас!!!!!!!!!!!!!!!!!!!!!!!!!!!!!!!
[Профиль]  [ЛС] 

Dara_999

Стаж: 9 лет 1 месяц

Сообщений: 34

Dara_999 · 15-Май-18 21:52 (спустя 22 часа)

[Цитировать] 

SEGA59 писал(а):
75353920"но никто не знает, что их отношения не узаконены"!!!... какой ужас!!!!!!!!!!!!!!!!!!!!!!!!!!!!!!!
Впервые вижу описание сюжета с такой потрясающей интригой!
[Профиль]  [ЛС] 
 
Ответить
Loading...
Error