Восток-Запад / Восточные сладости / Сезон: 2 / Серии: 1-24 из 24 (Денис Елеонский) [2018, Мелодрама, WEBRip]

Страницы:  1

Ответить
Автор
Сообщение

Сибиряк777

Top Seed 05* 640r

Стаж: 10 лет 1 месяц

Сообщений: 2945

Сибиряк777 · 15-Май-18 01:07 (5 месяцев 9 дней назад, ред. 31-Май-18 01:33)

Восток-Запад / Восточные сладости Год выпуска: 2018
Производство: Star Media
Жанр: Мелодрама
Продолжительность: 00:53:00
Субтитры: нет
Режиссёр: Денис Елеонский
В ролях: Евгения Лоза, Аднан Коч, Яков Кучеревский, Шенай Ба, Анна Варпаховская, Ольга Лукьяненко, Уйур Хакан Гюнери, Энгиз Озсайын, Алие Узунатаган, Дарья Южад, Наталья Кленина, Богдан Юсипчук, Полина Василина, Тимур Ибраимов, Алексан Четинкая, Ахтем Сейтаблаев, Хусейин Дилбер, Эркам Айдар, Мария Тарасова (II), Роман Выскребенцев
Описание: Продолжение сериала "Восточные сладости / Восток-Запад".
Найдет ли Татьяна счастье в Турции или вернется на Родину? Кто отец её ребенка? Что делать со своей жизнью, когда она стремительно рушится?..
Релиз группа:
Сэмпл: http://multi-up.com/1198289
Качество: WEBRip
Формат: AVI
Видео кодек: XviD
Аудио кодек: AC3
Видео: 720x400 (16:9), 25.000 fps, XviD build 73, 1545 Kbps, 0.21 Bits/Pixel
Аудио: 48 kHz, AC3 Dolby Digital, 2 ch, 192 Kbps
Реклама: Нет
MI
General
Complete name : Downloads\Восток-Запад 2 сезон (2018).WEB-DLRip.Files-x
Format : AVI
Format/Info : Audio Video Interleave
File size : 650 MiB
Duration : 52mn 2s
Overall bit rate : 1 746 Kbps
Writing application : VirtualDubMod 1.5.10.3 | www.virtualdub-fr.org || (build 2550/release)
Writing library : VirtualDubMod build 2550/release
Video #0
ID : 0
Format : MPEG-4 Visual
Format profile : Advanced [email protected]
Format settings, BVOP : 1
Format settings, QPel : No
Format settings, GMC : No warppoints
Format settings, Matrix : Custom
Codec ID : XVID
Codec ID/Hint : XviD
Duration : 52mn 2s
Bit rate : 1 545 Kbps
Width : 720 pixels
Height : 400 pixels
Display aspect ratio : 16:9
Frame rate : 25.000 fps
Color space : YUV
Chroma subsampling : 4:2:0
Bit depth : 8 bits
Scan type : Progressive
Compression mode : Lossy
Bits/(Pixel*Frame) : 0.215
Stream size : 575 MiB (88%)
Writing library : XviD 73
Audio #1
ID : 1
Format : AC-3
Format/Info : Audio Coding 3
Mode extension : CM (complete main)
Format settings, Endianness : Big
Codec ID : 2000
Duration : 52mn 2s
Bit rate mode : Constant
Bit rate : 192 Kbps
Channel(s) : 2 channels
Channel positions : Front: L R
Sampling rate : 48.0 KHz
Bit depth : 16 bits
Compression mode : Lossy
Stream size : 71.5 MiB (11%)
Alignment : Split accross interleaves
Interleave, duration : 40 ms (1.00 video frame)
Interleave, preload duration : 500 ms
Скриншоты
Внимание! Раздача ведётся путём добавления новых серий:
(1) остановить скачивание,
(2) удалить старый торрент у себя из клиента (старые серии удалять не надо),
(3) скачать новый торрент и запустить его у себя в клиенте вместо старого, при этом указать клиенту путь в старую папку куда и должно происходить скачивание новых серий.
Ваш клиент при этом должен произвести хеширование (проверку) старой папки (если не производит сам - помогите ему сделать это), и будет докачивать только те серии которых у вас ещё нет. Старые серии при этом не удаляются, а продолжают раздаваться!
Eсли вы уже удалили старые серии, то предотвратить повторную закачку старых серий можно, отжав галочку в соответсвующих местах при запуске нового торрента. По возможности, желательно не удалять старые серии как можно дольше чтобы релизёр не столько продолжал раздавать старые серии, а смог сконцентрироваться на новых
.
Предыдущие и альтернативные раздачи
Download
Чтобы скачать .torrent файл необходима регистрация
Сайт не распространяет и не хранит электронные версии произведений, а лишь предоставляет доступ к создаваемому пользователями каталогу ссылок на торрент-файлы, которые содержат только списки хеш-сумм
[Профиль]  [ЛС] 
 

Dobriak24

Стаж: 9 лет 3 месяца

Сообщений: 16


Dobriak24 · 22-Май-18 19:14 (спустя 7 дней)

[Цитировать] 

Спасибо! Жена рада будет, а то совсем замучила )))
[Профиль]  [ЛС] 

Сибиряк777

Top Seed 05* 640r

Стаж: 10 лет 1 месяц

Сообщений: 2945

Сибиряк777 · 25-Май-18 15:40 (спустя 2 дня 20 часов)

[Цитировать] 

Anatolyi писал(а):
75401857СПАСИБО большое! Супруга очень довольна!
Ну и хорошо что довольна. Не за что


Добавлены 15-я 16-я серии
[Профиль]  [ЛС] 

f_art

Стаж: 8 лет 3 месяца

Сообщений: 45


f_art · 25-Май-18 19:17 (спустя 3 часа)

[Цитировать] 

Мама очень рада! (По телеку показывают слишком поздно) Спасибо!
[Профиль]  [ЛС] 

Виктория140377

Стаж: 8 лет 2 месяца

Сообщений: 1


Виктория140377 · 26-Май-18 22:49 (спустя 1 день 3 часа, ред. 26-Май-18 22:49)

[Цитировать] 

Подскажите где можно посмотреть 1 сезон этой мелодрамы?
Сибиряк777 писал(а):
75405713
Anatolyi писал(а):
75401857СПАСИБО большое! Супруга очень довольна!
Ну и хорошо что довольна. Не за что


Добавлены 15-я 16-я серии
[Профиль]  [ЛС] 

Сибиряк777

Top Seed 05* 640r

Стаж: 10 лет 1 месяц

Сообщений: 2945

Сибиряк777 · 27-Май-18 10:26 (спустя 11 часов)

[Цитировать] 

Виктория140377
Тут в разделе есть 1 сезон. Вот он.
http://1.maintracker.org/forum/viewtopic.php?t=5300614
[Профиль]  [ЛС] 

lalastar

Стаж: 6 лет 8 месяцев

Сообщений: 17


lalastar · 30-Май-18 07:35 (спустя 2 дня 21 час)

[Цитировать] 

в 19 серии треск на протяжении всей серии
[Профиль]  [ЛС] 

Doctor13

Стаж: 12 лет 7 месяцев

Сообщений: 45


Doctor13 · 30-Май-18 17:00 (спустя 9 часов)

[Цитировать] 

lalastar писал(а):
75431402в 19 серии треск на протяжении всей серии
подтверждаю
[Профиль]  [ЛС] 

Anatolyi

Стаж: 10 лет 7 месяцев

Сообщений: 502


Anatolyi · 30-Май-18 20:11 (спустя 3 часа)

[Цитировать] 

у меня тоже в 19-й серии треск на протяжении всей серии
[Профиль]  [ЛС] 

Сибиряк777

Top Seed 05* 640r

Стаж: 10 лет 1 месяц

Сообщений: 2945

Сибиряк777 · 31-Май-18 01:36 (спустя 5 часов)

[Цитировать] 

Ну бывает
Исправлена 19 серия
Финал сезона.
[Профиль]  [ЛС] 

Anatolyi

Стаж: 10 лет 7 месяцев

Сообщений: 502


Anatolyi · 31-Май-18 19:09 (спустя 17 часов)

[Цитировать] 

СПАСИБО большое. И что исправили 19-ю серию. Теперь будет полный качественный сериал, который думаю, что еще не раз будет просматриваться, спустя какое-то время!
[Профиль]  [ЛС] 

serginiosan

Стаж: 13 лет 1 месяц

Сообщений: 29


serginiosan · 05-Июн-18 15:16 (спустя 4 дня)

[Цитировать] 

Ужас, а не фильм, хоть и сказка. Кто поверит, что старая страшная бабка понравилась богатому, сексуальному турку. И, как всегда,незаконченность, недоговоренность.
[Профиль]  [ЛС] 
 
Ответить
Loading...
Error