СашаТаня / Сезон: 6 / Серии: 1-11 из 11 + Фильм о фильме (Михаил Старчак) [2018, Комедийный телесериал, WEBRip]

Страницы:  1

Ответить
Автор
Сообщение

Сибиряк777

Top Seed 05* 640r

Стаж: 10 лет 1 месяц

Сообщений: 2949

Сибиряк777 · 15-Май-18 12:24 (5 месяцев 4 дня назад, ред. 31-Май-18 12:06)

СашаТаня
Год выпуска: 2018
Производство: Канал ТНТ, "Comedy Club Production"
Жанр: Комедийный телесериал
Продолжительность: 00:24:00
Субтитры: нет
Режиссёр: Михаил Старчак
В ролях: Андрей Гайдулян, Валентина Рубцова, Алексей Климушкин, Елена Бирюкова, Татьяна Орлова, Андрей Лебедев, Ксения Хаирова, Олег Новиков, Сергей Рудзевич, Сергей Мурзин, Андрей Свиридов, Павел Кассинский, Виталий Гогунский, Арарат Кещян, Ёлка, Алексей Гаврилов, Лариса Баранова, Алина Кизиярова-Ланина, Екатерина Шукшина, Владимир Епифанцев
Описание: Сериал про молодую семью Сергеевых. После окончания института Саша и Таня вместе со своим маленьким сыном Алёшкой решили пожить самостоятельно и сняли квартиру в Южном Бутово. Райончик конечно не из лучших, но зато и цены на жилье тут доступные, ведь Саша не собирается пользоваться миллиардами своего папы. Но Сильвестр Андреевич не собирается так просто отставать от молодых и тем более от своего внука. Поэтому он поселился по соседству, только в просторной и роскошной квартире.
Релиз группа:
Сэмпл: http://multi-up.com/1198322
Качество: WEBRip
Формат: AVI
Видео кодек: XviD
Аудио кодек: AC3
Видео: 720x400 (16:9), 25.000 fps, XviD build 73, 1545 Kbps, 0.21 Bits/Pixel
Аудио: 48 kHz, AC3 Dolby Digital, 2 ch, 192 Kbps
Реклама: Нет
MI
General
Complete name : \Downloads\САШАТАНЯ.s06.2018. WEB-DLRip.Files-x\01. САШАТАНЯ.s06.2018..Files-x.avi
Format : AVI
Format/Info : Audio Video Interleave
File size : 301 MiB
Duration : 23mn 22s
Overall bit rate : 1 802 Kbps
Writing application : VirtualDubMod 1.5.10.3 | www.virtualdub-fr.org || (build 2550/release)
Writing library : VirtualDubMod build 2550/release
Video #0
ID : 0
Format : MPEG-4 Visual
Format profile : Advanced [email protected]
Format settings, BVOP : 1
Format settings, QPel : Yes
Format settings, GMC : No warppoints
Format settings, Matrix : Default (MPEG)
Codec ID : XVID
Codec ID/Hint : XviD
Duration : 23mn 22s
Bit rate : 1 600 Kbps
Width : 720 pixels
Height : 400 pixels
Display aspect ratio : 16:9
Frame rate : 25.000 fps
Color space : YUV
Chroma subsampling : 4:2:0
Bit depth : 8 bits
Scan type : Progressive
Compression mode : Lossy
Bits/(Pixel*Frame) : 0.222
Stream size : 268 MiB (89%)
Writing library : XviD 73
Audio #1
ID : 1
Format : AC-3
Format/Info : Audio Coding 3
Mode extension : CM (complete main)
Format settings, Endianness : Big
Codec ID : 2000
Duration : 23mn 22s
Bit rate mode : Constant
Bit rate : 192 Kbps
Channel(s) : 2 channels
Channel positions : Front: L R
Sampling rate : 48.0 KHz
Bit depth : 16 bits
Compression mode : Lossy
Stream size : 32.1 MiB (11%)
Alignment : Split accross interleaves
Interleave, duration : 40 ms (1.00 video frame)
Interleave, preload duration : 500 ms
Скриншоты
Внимание! Раздача ведётся путём добавления новых серий:
(1) остановить скачивание,
(2) удалить старый торрент у себя из клиента (старые серии удалять не надо),
(3) скачать новый торрент и запустить его у себя в клиенте вместо старого, при этом указать клиенту путь в старую папку куда и должно происходить скачивание новых серий.
Ваш клиент при этом должен произвести хеширование (проверку) старой папки (если не производит сам - помогите ему сделать это), и будет докачивать только те серии которых у вас ещё нет. Старые серии при этом не удаляются, а продолжают раздаваться!
Eсли вы уже удалили старые серии, то предотвратить повторную закачку старых серий можно, отжав галочку в соответсвующих местах при запуске нового торрента. По возможности, желательно не удалять старые серии как можно дольше чтобы релизёр не столько продолжал раздавать старые серии, а смог сконцентрироваться на новых
.
Предыдущие и альтернативные раздачи
Download
Чтобы скачать .torrent файл необходима регистрация
Сайт не распространяет и не хранит электронные версии произведений, а лишь предоставляет доступ к создаваемому пользователями каталогу ссылок на торрент-файлы, которые содержат только списки хеш-сумм
[Профиль]  [ЛС] 
 

STALKERON2

Стаж: 8 лет

Сообщений: 4


STALKERON2 · 21-Май-18 18:57 (спустя 6 дней)

[Цитировать] 

заменили 3 серию?
[Профиль]  [ЛС] 

Bulakka

Стаж: 9 лет 2 месяца

Сообщений: 13

Bulakka · 28-Май-18 21:06 (спустя 7 дней)

[Цитировать] 

Цитата:
Реклама: Нет
реклама в начале 8 серии
[Профиль]  [ЛС] 

Сибиряк777

Top Seed 05* 640r

Стаж: 10 лет 1 месяц

Сообщений: 2949

Сибиряк777 · 31-Май-18 12:09 (спустя 2 дня 15 часов, ред. 31-Май-18 12:09)

[Цитировать] 

Все серии 6-го сезона.
Добавлен фильм о фильме.
[Профиль]  [ЛС] 

vinnipu

Стаж: 10 лет 4 месяца

Сообщений: 10


vinnipu · 04-Июн-18 22:01 (спустя 4 дня)

[Цитировать] 

Сибиряк777 Спасибо за ''фильм о фильме'', прикольно и очень интересно посмотреть как снимают, а самое как ведут себя актеры вовремя съемок. Спасибо.
[Профиль]  [ЛС] 

Mazerex

Стаж: 5 лет 4 месяца

Сообщений: 1


Mazerex · 05-Июн-18 13:24 (спустя 15 часов)

[Цитировать] 

Что-то не пойму, это финал сезона или сериала?
[Профиль]  [ЛС] 
 
Ответить
Loading...
Error