Адрес РуТрекера для пользователей РФ - MainTracker.org

Расскажи друзьям:  

СашаТаня / Сезон: 6 / Серии: 1-11 из 11 + Фильм о фильме (Михаил Старчак) [2018, комедия, HDTVRip 720p]

Страницы:  1

Ответить
Автор
Сообщение

Pigy

RG Русские сериалы

Стаж: 9 лет 9 месяцев

Сообщений: 2479

Pigy · 15-Май-18 12:28 (3 месяца 4 дня назад, ред. 31-Май-18 10:58)

СашаТаня
Год выпуска: 2018
Производство: Comedy Club Production
Жанр: комедия
Продолжительность: ~00:22:00 серия
Субтитры: нет
Режиссёр: Михаил Старчак
В ролях: Андрей Гайдулян, Валентина Рубцова, Алексей Климушкин, Елена Бирюкова, Татьяна Орлова, Андрей Лебедев, Ксения Хаирова, Олег Новиков, Сергей Рудзевич, Сергей Мурзин, Андрей Свиридов, Павел Кассинский, Алексей Гаврилов, Лариса Баранова, Алина Кизиярова-Ланина, Екатерина Шукшина
Описание: Смирившейся с ипотекой, детским садиком и надоевшим папашей-олигархом чете Сергеевых станет невыносимо скучно. Настолько, что они обзаведутся новым «ребенком». Кавычки здесь потому, что ребенок этот будет не родной, и даже не приемный. Из некоего города Озерcк в Москву нагрянет двоюродная сестра Тани 18-летняя Катя, которая станет для Сергеевых большой и очень симпатичной обузой. Сестренка оказалась девушкой видной, поэтому Саша, положив на нее свой отеческий «надзор», моментально поведет знакомить провинциалку с московскими прелестями: Красной Площадью, Кремлем, ГУМом и другими столичными соблазнами. В общем, не было у Сергеевых забот.

Доп. информация: В конце 6-ого сезона вышел 24-минутный фильм о сериале, который показали по ТВ - он присутствует в раздаче. Для тех кому этого недостаточно ТНТ выпустил спецвыпуск СашиТани, который не показали по ТВ. В нем герои откроют ещё больше секретов и ответят на больше вопросов. Здесь можно скачать WEBRip этого Спецвыпуска с яндекс диска в формате avi. Размер файла - 569 Мб. Длительность - 00:41:51. В раздачу добавлять не стал, потому что качество файла отличается от данной раздачи.
Будьте внимательны! Фильм о фильме в раздаче и по ссылке на Яндекс-диске - отличаются кардинально, это совсем разные выпуски.

Реклама: Нет.

Все раздачи сериала
Sample
Качество: HDTVRip 720p - Nikolspup
Формат: MKV
Видео кодек: H.264
Аудио кодек: AC3
Видео: MPEG4 AVC Video, H264, 16:9, 1280x720, 25 fps, ~4000 kbps, 0.174 bit/pixel
Аудио: AC3 Dolby Digital, 48 kHz, 2/0 (L,R) ch, 192 kbps
Внимание! Раздача ведётся путём добавления новых серий
Раздача ведётся путём добавления новых серий, при каждом добавлении создаётся новый торрент. Чтобы начать докачку новой серии, пользователям необходимо сделать следующее:
- Остановить скачивание.
- Удалить старый торрент у себя из клиента (старые серии удалять не надо).
- Скачать новый торрент и запустить его у себя в клиенте вместо старого, при этом указать клиенту путь в старую папку куда и должно происходить скачивание новых серий.
Ваш клиент при этом должен произвести хеширование (проверку) старой папки (если не производит сам - помогите ему сделать это), и будет докачивать только те серии которых у вас ещё нет. Старые серии при этом не удаляются, а продолжают раздаваться!
Если вы уже удалили старые серии, то предотвратить повторную закачку старых серий можно, отжав галочку в соответствующих местах при запуске нового торрента. По возможности, желательно не удалять старые серии как можно дольше, чтобы релизер не столько продолжал раздавать старые серии, а смог сконцентрироваться на новых.
MI
General
Unique ID : 180340334208603665243668972551368773230 (0x87AC48F4AAA282DDA6868BE3255E8E6E)
Complete name : D:\SashaTanya.06.2018.HDTVRip.(720p).Nikolspup\SashaTanya.06.(01.seriya).2018.HDTVRip.(720p).Nikolspup.mkv
Format : Matroska
Format version : Version 4 / Version 2
File size : 687 MiB
Duration : 22mn 54s
Overall bit rate : 4 194 Kbps
Encoded date : UTC 2018-05-14 18:56:32
Writing application : mkvmerge v7.8.0 ('River Man') 32bit built on Mar 27 2015 16:18:02
Writing library : libebml v1.3.1 + libmatroska v1.4.2
DURATION : 00:22:54.432000000
NUMBER_OF_FRAMES : 42951
NUMBER_OF_BYTES : 32986368
_STATISTICS_WRITING_APP : mkvmerge v7.8.0 ('River Man') 32bit built on Mar 27 2015 16:18:02
_STATISTICS_WRITING_DATE_UTC : 2018-05-14 18:56:32
_STATISTICS_TAGS : BPS DURATION NUMBER_OF_FRAMES NUMBER_OF_BYTES
Video
ID : 1
Format : AVC
Format/Info : Advanced Video Codec
Format profile : High@L4.1
Format settings, CABAC : Yes
Format settings, ReFrames : 9 frames
Codec ID : V_MPEG4/ISO/AVC
Duration : 22mn 54s
Bit rate : 4 000 Kbps
Width : 1 280 pixels
Height : 720 pixels
Display aspect ratio : 16:9
Frame rate mode : Constant
Frame rate : 25.000 fps
Color space : YUV
Chroma subsampling : 4:2:0
Bit depth : 8 bits
Scan type : Progressive
Bits/(Pixel*Frame) : 0.174
Stream size : 642 MiB (93%)
Writing library : x264 core 146 r2538 121396c
Encoding settings : cabac=1 / ref=9 / deblock=1:-2:-1 / analyse=0x3:0x133 / me=umh / subme=9 / psy=1 / psy_rd=1.00:0.20 / mixed_ref=1 / me_range=32 / chroma_me=1 / trellis=2 / 8x8dct=1 / cqm=0 / deadzone=21,11 / fast_pskip=1 / chroma_qp_offset=-3 / threads=16 / lookahead_threads=8 / sliced_threads=0 / nr=0 / decimate=1 / interlaced=0 / bluray_compat=0 / constrained_intra=0 / bframes=11 / b_pyramid=2 / b_adapt=2 / b_bias=0 / direct=1 / weightb=1 / open_gop=0 / weightp=2 / keyint=250 / keyint_min=25 / scenecut=40 / intra_refresh=0 / rc=2pass / mbtree=0 / bitrate=4000 / ratetol=1.0 / qcomp=0.60 / qpmin=0 / qpmax=69 / qpstep=4 / cplxblur=20.0 / qblur=0.5 / ip_ratio=1.40 / pb_ratio=1.30 / aq=3:1.00
Default : No
Forced : No
DURATION : 00:22:54.400000000
NUMBER_OF_FRAMES : 34360
NUMBER_OF_BYTES : 687176332
_STATISTICS_WRITING_APP : mkvmerge v7.8.0 ('River Man') 32bit built on Mar 27 2015 16:18:02
_STATISTICS_WRITING_DATE_UTC : 2018-05-14 18:56:32
_STATISTICS_TAGS : BPS DURATION NUMBER_OF_FRAMES NUMBER_OF_BYTES
Color primaries : BT.709
Transfer characteristics : BT.709
Matrix coefficients : BT.709
Audio
ID : 2
Format : AC-3
Format/Info : Audio Coding 3
Mode extension : CM (complete main)
Format settings, Endianness : Big
Codec ID : A_AC3
Duration : 22mn 54s
Bit rate mode : Constant
Bit rate : 192 Kbps
Channel count : 2 channels
Channel positions : Front: L R
Sampling rate : 48.0 KHz
Bit depth : 16 bits
Compression mode : Lossy
Stream size : 31.5 MiB (5%)
Language : Russian
Default : Yes
Forced : Yes
Скриншоты
Download
Чтобы скачать .torrent файл необходима регистрация
Сайт не распространяет и не хранит электронные версии произведений, а лишь предоставляет доступ к создаваемому пользователями каталогу ссылок на торрент-файлы, которые содержат только списки хеш-сумм
[Профиль]  [ЛС] 
 

Pigy

RG Русские сериалы

Стаж: 9 лет 9 месяцев

Сообщений: 2479

Pigy · 17-Май-18 22:42 (спустя 2 дня 10 часов, ред. 17-Май-18 22:42)

[Цитировать] 

Добавлена 3 серия.
Добавлена 4 серия.
Добавлена 5 серия.
[Профиль]  [ЛС] 

Pigy

RG Русские сериалы

Стаж: 9 лет 9 месяцев

Сообщений: 2479

Pigy · 22-Май-18 22:17 (спустя 4 дня, ред. 22-Май-18 22:17)

[Цитировать] 

Добавлена 6 серия.
Добавлена 7 серия.
[Профиль]  [ЛС] 

R.O.G.

VIP (Заслуженный)

Стаж: 11 лет 6 месяцев

Сообщений: 1759

R.O.G. · 23-Май-18 22:07 (спустя 23 часа)

[Цитировать] 

[Профиль]  [ЛС] 

Pigy

RG Русские сериалы

Стаж: 9 лет 9 месяцев

Сообщений: 2479

Pigy · 25-Май-18 08:54 (спустя 1 день 10 часов, ред. 25-Май-18 08:54)

[Цитировать] 

Добавлена 9 серия
и заменена 8 серия (были небольшие косяки в видео).
[Профиль]  [ЛС] 

Славный Владыка

Стаж: 7 лет 5 месяцев

Сообщений: 73


Славный Владыка · 29-Май-18 12:32 (спустя 4 дня)

[Цитировать] 

Когда появится следующая серия? Спасибо.
[Профиль]  [ЛС] 

Pigy

RG Русские сериалы

Стаж: 9 лет 9 месяцев

Сообщений: 2479

Pigy · 31-Май-18 11:02 (спустя 1 день 22 часа, ред. 31-Май-18 11:02)

[Цитировать] 

Добавлена 10 серия.
Добавлена заключительная 11 серия.
Завтра будет фильм о сериале. постараюсь добавить в раздачу.

Добавлен фильм о фильме.
Друзья, в шапке раздачи добавлен ещё один фильм о сериале. Он отличается от того, что уже есть в раздаче. Подробности в пункте Доп. информация.
[Профиль]  [ЛС] 

kacher2013

Стаж: 5 лет 2 месяца

Сообщений: 76

kacher2013 · 01-Июн-18 05:11 (спустя 18 часов)

[Цитировать] 

Отличненько. Спасибо Pigy. А я думаю чего бы посмотреть, а тут увидел по тнт увидел идет новая серия, залез сюды а тут весь сезон уже лежит
[Профиль]  [ЛС] 
 
Ответить
Loading...
Error