Адрес РуТрекера для пользователей РФ - MainTracker.org

Расскажи друзьям:  

Практика / Сезон: 2 / Серии: 1-8 из 40 (Андрей Силкин) [2018, драма, WEBRip]

Страницы:  1

Ответить
Автор
Сообщение

Pigy

RG Русские сериалы

Стаж: 9 лет 6 месяцев

Сообщений: 2331

Pigy · 15-Май-18 12:47 (12 дней назад, ред. 22-Май-18 00:49)

Практика 2
Год выпуска: 2018
Производство: Epic Media
Жанр: драма
Продолжительность: ~00:46:00 серия
Субтитры: нет
Режиссёр: Андрей Силкин
В ролях: Ксения Лаврова-Глинка, Эльдар Лебедев, Пётр Баранчеев, Ольга Чудакова, Олег Шкловский, Иван Шибанов, Елизавета Лотова, Максим Костромыкин, Лилия Кондрова, Лада Чуровская, Андрей Москвичёв, Юлия Хамитова, Ксения Щербакова, Дарья Хорошилова, Ирина Чипиженко, Борис Хвошнянский, Екатерина Коновалова, Александра Скачкова, Евгений Михеев, Эдуард Айткулов, Юлия Полынская, Александр Андриенко, Мария Бортник, Екатерина Леонова , Валерий Зазулин, Олег Морозов, Анастасия Калашникова, Виталий Щанников, Руслан Щедрин
Описание: Прошел год. В Приемном отделении по-прежнему ни минуты покоя. У каждого пациента – своя боль, а Женя, Илья, Оля и Слава делают все, чтобы спасти каждого.Завтра у Жени и Ильи важный день - их свадьба. Кажется, что все препятствия, наконец, позади. Даже Степан делает вид, что смирился. Из-за рецидива болезни Гиппократ вынужден оставить работу. На его место приходит Павел Грачев – бывший учитель Жени и ее первая любовь.Степан занимается поиском маньяка. В ход расследования активно вмешивается журналистка Вика. Но вскоре становится понятно, что она хочет помочь Илье, потому что влюблена в него.

Реклама: Нет.

Все раздачи сериала
Sample
Качество: WEBRip - Files-x
Формат: AVI
Видео кодек: XviD
Аудио кодек: AC3
Видео: 720x400 (1.80:1), 25 fps, XviD build 73 ~1600 kbps avg, 0.224 bit/pixel
Аудио: 48.0 kHz, AC3 Dolby Digital, 2/0 (L,R) ch, ~ 192 kbps
Внимание! Раздача ведётся путём добавления новых серий
Раздача ведётся путём добавления новых серий, при каждом добавлении создаётся новый торрент. Чтобы начать докачку новой серии, пользователям необходимо сделать следующее:
- Остановить скачивание.
- Удалить старый торрент у себя из клиента (старые серии удалять не надо).
- Скачать новый торрент и запустить его у себя в клиенте вместо старого, при этом указать клиенту путь в старую папку куда и должно происходить скачивание новых серий.
Ваш клиент при этом должен произвести хеширование (проверку) старой папки (если не производит сам - помогите ему сделать это), и будет докачивать только те серии которых у вас ещё нет. Старые серии при этом не удаляются, а продолжают раздаваться!
Если вы уже удалили старые серии, то предотвратить повторную закачку старых серий можно, отжав галочку в соответствующих местах при запуске нового торрента. По возможности, желательно не удалять старые серии как можно дольше, чтобы релизер не столько продолжал раздавать старые серии, а смог сконцентрироваться на новых.
MI
General
Complete name : D:\Практика 2 (2018).WEB-DLRip.Files-x\01.Практика 2 (2018).WEB-DLRip.Files-x.avi
Format : AVI
Format/Info : Audio Video Interleave
File size : 603 MiB
Duration : 46mn 21s
Overall bit rate : 1 817 Kbps
Writing application : VirtualDubMod 1.5.10.3 | www.virtualdub-fr.org || (build 2550/release)
Writing library : VirtualDubMod build 2550/release
Video
ID : 0
Format : MPEG-4 Visual
Format profile : Advanced Simple@L5
Format settings, BVOP : 1
Format settings, QPel : No
Format settings, GMC : No warppoints
Format settings, Matrix : Custom
Codec ID : XVID
Codec ID/Hint : XviD
Duration : 46mn 21s
Bit rate : 1 615 Kbps
Width : 720 pixels
Height : 400 pixels
Display aspect ratio : 16:9
Frame rate : 25.000 fps
Color space : YUV
Chroma subsampling : 4:2:0
Bit depth : 8 bits
Scan type : Progressive
Compression mode : Lossy
Bits/(Pixel*Frame) : 0.224
Stream size : 536 MiB (89%)
Writing library : XviD 73
Audio
ID : 1
Format : AC-3
Format/Info : Audio Coding 3
Mode extension : CM (complete main)
Format settings, Endianness : Big
Codec ID : 2000
Duration : 46mn 21s
Bit rate mode : Constant
Bit rate : 192 Kbps
Channel count : 2 channels
Channel positions : Front: L R
Sampling rate : 48.0 KHz
Bit depth : 16 bits
Compression mode : Lossy
Stream size : 63.7 MiB (11%)
Alignment : Split accross interleaves
Interleave, duration : 40 ms (1.00 video frame)
Interleave, preload duration : 500 ms
Скриншоты
Download
Чтобы скачать .torrent файл необходима регистрация
Сайт не распространяет и не хранит электронные версии произведений, а лишь предоставляет доступ к создаваемому пользователями каталогу ссылок на торрент-файлы, которые содержат только списки хеш-сумм
[Профиль]  [ЛС] 
 

Pigy

RG Русские сериалы

Стаж: 9 лет 6 месяцев

Сообщений: 2331

Pigy · 18-Май-18 00:49 (спустя 2 дня 12 часов, ред. 18-Май-18 00:49)

[Цитировать] 

Добавлены 3-4 серии.
Добавлены 5-6 серии.
[Профиль]  [ЛС] 

sao89

Top Seed 02* 80r

Стаж: 9 лет 11 месяцев

Сообщений: 387

sao89 · 21-Май-18 21:23 (спустя 3 дня)

[Цитировать] 

Спасибо! Продолжение будет?
[Профиль]  [ЛС] 

Pigy

RG Русские сериалы

Стаж: 9 лет 6 месяцев

Сообщений: 2331

Pigy · 22-Май-18 00:52 (спустя 3 часа)

[Цитировать] 

Добавлены 7-8 серии.
sao89 писал(а):
75388208Спасибо! Продолжение будет?
Сейчас трудно сказать. Возможно что нет. Канал снял с эфира этот сериал. Тема обсуждалась в соседней раздаче http://1.maintracker.org/forum/viewtopic.php?t=5561818, и на многих ресурсах в интернете..
[Профиль]  [ЛС] 

bulgary_guest

Стаж: 7 лет 10 месяцев

Сообщений: 76


bulgary_guest · 22-Май-18 06:46 (спустя 5 часов)

[Цитировать] 

Слишком много сериалов про врачей стало. Люди не хотят уже их смотреть.
[Профиль]  [ЛС] 

sao89

Top Seed 02* 80r

Стаж: 9 лет 11 месяцев

Сообщений: 387

sao89 · 22-Май-18 19:13 (спустя 12 часов)

[Цитировать] 

Pigy писал(а):
75389068Добавлены 7-8 серии.
sao89 писал(а):
75388208Спасибо! Продолжение будет?
Сейчас трудно сказать. Возможно что нет. Канал снял с эфира этот сериал. Тема обсуждалась в соседней раздаче http://1.maintracker.org/forum/viewtopic.php?t=5561818, и на многих ресурсах в интернете..
То, что сняли я знаю! Может будет запись с какого нибудь онлайн кинотеатра?
[Профиль]  [ЛС] 

Glaha64

Стаж: 5 лет 4 месяца

Сообщений: 11


Glaha64 · 25-Май-18 03:42 (спустя 2 дня 8 часов)

[Цитировать] 

Спасибо за Ваш труд! С нетерпением жду продолжения.
[Профиль]  [ЛС] 
 
Ответить
Loading...
Error