Адрес РуТрекера для пользователей РФ - MainTracker.org

Расскажи друзьям:  

Путешествие к центру души / Серии: 1-16 из 16 (Дмитрий Матов) [2018, Мелодрама, WEBRip]

Страницы:  1

Ответить
Автор
Сообщение

Сибиряк777

Top Seed 05* 640r

Стаж: 9 лет 8 месяцев

Сообщений: 2810

Сибиряк777 · 15-Май-18 13:19 (12 дней назад, ред. 27-Май-18 18:41)

Путешествие к центру души
Год выпуска: 2018
Производство: Кинокомпания "Star Media"
Жанр: Мелодрама
Продолжительность: 00:45:46
Субтитры: нет
Режиссёр: Дмитрий Матов
В ролях: Мария Баева, Анастасия Иванова (II), Александр Робак, Андрей Аверков, Екатерина Семёнова, Игорь Скрипко, Даниил Мирешкин, Артём Позняк, Константин Корецкий, Ольга Радчук, Игорь Петрусенко, Сергей Деньга, Владимир Абазопуло (младший), Людмила Загорская
Описание: Сага о судьбах двух девушек – Риты и Веры, ставших ближайшими подругами в переломный исторический момент распада СССР. История развивается на протяжении двадцати лет. Из-за любви к одному мужчине – Максиму, Рита и Вера из лучших подруг превращаются в смертельно опасных друг для друга врагов. Коварная Вера мучительно завидуя Рите мечтает прибрать к рукам не только ее любимого, но и Ритины деньги и Ритину жизнь. А Рита хочет начать все с чистого листа. И судьба дает каждой из них уникальный шанс: начать жизнь заново. Но старые обиды и грехи не позволяют Вере забыть о прошлом и перестать ненавидеть более удачливую и чистую подругу Риту.
Релиз группа:
Сэмпл: http://multi-up.com/1198501
Качество: WEBRip
Формат: AVI
Видео кодек: XviD
Аудио кодек: AC3
Видео: 720x400 (16:9), 25.000 fps, XviD build 73, 1631 Kbps, 0.21 Bits/Pixel
Аудио: 48 kHz, AC3 Dolby Digital, 2 ch, 192 Kbps
Реклама: Нет
MI
General
Complete name : Downloads\Путешествие к центру души.2018.WEBRip.by.Nicodem.Files-x
Format : AVI
Format/Info : Audio Video Interleave
File size : 600 MiB
Duration : 45mn 46s
Overall bit rate : 1 833 Kbps
Writing application : VirtualDubMod 1.5.10.3 | www.virtualdub-fr.org || (build 2550/release)
Writing library : VirtualDubMod build 2550/release
Video #0
ID : 0
Format : MPEG-4 Visual
Format profile : Advanced Simple@L5
Format settings, BVOP : 1
Format settings, QPel : Yes
Format settings, GMC : No warppoints
Format settings, Matrix : Custom
Codec ID : XVID
Codec ID/Hint : XviD
Duration : 45mn 46s
Bit rate : 1 631 Kbps
Width : 720 pixels
Height : 400 pixels
Display aspect ratio : 16:9
Frame rate : 25.000 fps
Color space : YUV
Chroma subsampling : 4:2:0
Bit depth : 8 bits
Scan type : Progressive
Compression mode : Lossy
Bits/(Pixel*Frame) : 0.227
Stream size : 534 MiB (89%)
Writing library : XviD 73
Audio #1
ID : 1
Format : AC-3
Format/Info : Audio Coding 3
Mode extension : CM (complete main)
Format settings, Endianness : Big
Codec ID : 2000
Duration : 45mn 46s
Bit rate mode : Constant
Bit rate : 192 Kbps
Channel(s) : 2 channels
Channel positions : Front: L R
Sampling rate : 48.0 KHz
Bit depth : 16 bits
Compression mode : Lossy
Stream size : 62.9 MiB (10%)
Alignment : Split accross interleaves
Interleave, duration : 40 ms (1.00 video frame)
Interleave, preload duration : 500 ms
Скриншоты
Внимание! Раздача ведётся путём добавления новых серий:
(1) остановить скачивание,
(2) удалить старый торрент у себя из клиента (старые серии удалять не надо),
(3) скачать новый торрент и запустить его у себя в клиенте вместо старого, при этом указать клиенту путь в старую папку куда и должно происходить скачивание новых серий.
Ваш клиент при этом должен произвести хеширование (проверку) старой папки (если не производит сам - помогите ему сделать это), и будет докачивать только те серии которых у вас ещё нет. Старые серии при этом не удаляются, а продолжают раздаваться!
Eсли вы уже удалили старые серии, то предотвратить повторную закачку старых серий можно, отжав галочку в соответсвующих местах при запуске нового торрента. По возможности, желательно не удалять старые серии как можно дольше чтобы релизёр не столько продолжал раздавать старые серии, а смог сконцентрироваться на новых
.
Предыдущие и альтернативные раздачи
Download
Чтобы скачать .torrent файл необходима регистрация
Сайт не распространяет и не хранит электронные версии произведений, а лишь предоставляет доступ к создаваемому пользователями каталогу ссылок на торрент-файлы, которые содержат только списки хеш-сумм
[Профиль]  [ЛС] 
 

Сибиряк777

Top Seed 05* 640r

Стаж: 9 лет 8 месяцев

Сообщений: 2810

Сибиряк777 · 16-Май-18 10:14 (спустя 20 часов)

[Цитировать] 

+4
[Профиль]  [ЛС] 

sikono.57

Стаж: 5 лет 1 месяц

Сообщений: 51


sikono.57 · 18-Май-18 21:26 (спустя 2 дня 11 часов)

[Цитировать] 

Жена просит продолжения.
[Профиль]  [ЛС] 

S77R

Стаж: 7 лет 9 месяцев

Сообщений: 4


S77R · 19-Май-18 02:59 (спустя 5 часов)

[Цитировать] 

и у меня жена просит продолжения) когда серии выходят то?
[Профиль]  [ЛС] 

Сибиряк777

Top Seed 05* 640r

Стаж: 9 лет 8 месяцев

Сообщений: 2810

Сибиряк777 · 19-Май-18 20:16 (спустя 17 часов)

[Цитировать] 

Всё будет, но не сразу. Пускай потерпят
Добавил с 5 по 8 серию, остальные серии на след. недели будут.
[Профиль]  [ЛС] 

Сибиряк777

Top Seed 05* 640r

Стаж: 9 лет 8 месяцев

Сообщений: 2810

Сибиряк777 · 24-Май-18 18:22 (спустя 4 дня)

[Цитировать] 

+14
[Профиль]  [ЛС] 

Сибиряк777

Top Seed 05* 640r

Стаж: 9 лет 8 месяцев

Сообщений: 2810

Сибиряк777 · 27-Май-18 18:42 (спустя 3 дня)

[Цитировать] 

Все серии. Конец
[Профиль]  [ЛС] 
 
Ответить
Loading...
Error