Адрес РуТрекера для пользователей РФ - MainTracker.org

Расскажи друзьям:  

Сиделка / Серии: 1-16 из 16 (Станислав Назиров, Анна Ерофеева) [2018, детектив, мелодрама, триллер, WEBRip]

Страницы:  1

Ответить
Автор
Сообщение

Pigy

RG Русские сериалы

Стаж: 9 лет 9 месяцев

Сообщений: 2479

Pigy · 15-Май-18 15:20 (3 месяца 5 дней назад, ред. 25-Май-18 13:17)

Сиделка
Год выпуска: 2018
Производство: кинокомпания Русское, Эйбиси фильм Украина, VILETON PRODUCTION
Жанр: детектив, мелодрама, триллер
Продолжительность: ~00:52:00 серия
Субтитры: нет
Режиссёр: Станислав Назиров, Анна Ерофеева
В ролях: Александра Власова, Илья Акинтьев, Юрий Беляев, Регина Мянник, Александр Давыдов, Любава Грешнова, Артемий Падалка, Денис Нурулин, Наталия Балясова, Максим Дрозд, Сергей Жигунов, Анна Попова, Валентина Ельшанская, Всеволод Макаров, Анна Шульгина, Егор Строков, Марина Богатова, Светлана Потанина, Татьяна Клюкина, Евгений Косырев, Дарья Белоусова, Пётр Ступин, Николай Денисов, Владислав Миллер, Светлана Милованова, Константин Константинов
Описание: В большом загородном доме живет большое семейство влиятельного бизнесмена Анатолия Павловича Шубина. На официальных мероприятиях, общаясь с журналистами, они производят впечатление очень дружной семьи, однако на самом деле для всех наследников Шубина важны только деньги, и каждый готов на все ради того, чтобы добиться своего. Впрочем, сам Шубин об этом прекрасно знает и потому совсем не удивляется, когда после новости о его неизлечимой болезни все семейство заведомо считает его покойником. Единственной отрадой Анатолия Павловича становится его сиделка Катя: только с ней он готов разговаривать. Сама Катя никак не может понять, почему сиделкой наняли именно ее – учительницу, не медика. Однако вскоре сам Анатолий Павлович говорит девушке, что это было его распоряжение, ведь он знал ее отца и, более того, считает себя виновным в его смерти. Возможно, поэтому он также включил Катю в число своих наследников, так что девушке стоит опасаться каждого в этой семье…

Реклама: Нет.
Кинопоиск
Все раздачи сериала
Sample
Качество: WEBRip - Files-x
Формат: AVI
Видео кодек: XviD
Аудио кодек: AC3
Видео: 720x400 (1.80:1), 25 fps, XviD build 73 ~1550 kbps avg, 0.214 bit/pixel
Аудио: 48.0 kHz, AC3 Dolby Digital, 2/0 (L,R) ch, ~ 192 kbps
Внимание! Раздача ведётся путём добавления новых серий
Раздача ведётся путём добавления новых серий, при каждом добавлении создаётся новый торрент. Чтобы начать докачку новой серии, пользователям необходимо сделать следующее:
- Остановить скачивание.
- Удалить старый торрент у себя из клиента (старые серии удалять не надо).
- Скачать новый торрент и запустить его у себя в клиенте вместо старого, при этом указать клиенту путь в старую папку куда и должно происходить скачивание новых серий.
Ваш клиент при этом должен произвести хеширование (проверку) старой папки (если не производит сам - помогите ему сделать это), и будет докачивать только те серии которых у вас ещё нет. Старые серии при этом не удаляются, а продолжают раздаваться!
Если вы уже удалили старые серии, то предотвратить повторную закачку старых серий можно, отжав галочку в соответствующих местах при запуске нового торрента. По возможности, желательно не удалять старые серии как можно дольше, чтобы релизер не столько продолжал раздавать старые серии, а смог сконцентрироваться на новых.
MI
General
Complete name : D:\Sidelka.2018.WEB-DLRip.Files-x\01.Sidelka.2018.WEB-DLRip.Files-x.avi
Format : AVI
Format/Info : Audio Video Interleave
File size : 652 MiB
Duration : 52mn 14s
Overall bit rate : 1 745 Kbps
Writing application : VirtualDubMod 1.5.10.3 | www.virtualdub-fr.org || (build 2550/release)
Writing library : VirtualDubMod build 2550/release
Video
ID : 0
Format : MPEG-4 Visual
Format profile : Advanced Simple@L5
Format settings, BVOP : 1
Format settings, QPel : No
Format settings, GMC : No warppoints
Format settings, Matrix : Custom
Codec ID : XVID
Codec ID/Hint : XviD
Duration : 52mn 14s
Bit rate : 1 543 Kbps
Width : 720 pixels
Height : 400 pixels
Display aspect ratio : 16:9
Frame rate : 25.000 fps
Color space : YUV
Chroma subsampling : 4:2:0
Bit depth : 8 bits
Scan type : Progressive
Compression mode : Lossy
Bits/(Pixel*Frame) : 0.214
Stream size : 577 MiB (88%)
Writing library : XviD 73
Audio
ID : 1
Format : AC-3
Format/Info : Audio Coding 3
Mode extension : CM (complete main)
Format settings, Endianness : Big
Codec ID : 2000
Duration : 52mn 14s
Bit rate mode : Constant
Bit rate : 192 Kbps
Channel count : 2 channels
Channel positions : Front: L R
Sampling rate : 48.0 KHz
Bit depth : 16 bits
Compression mode : Lossy
Stream size : 71.8 MiB (11%)
Alignment : Split accross interleaves
Interleave, duration : 40 ms (1.00 video frame)
Interleave, preload duration : 500 ms
Скриншоты
Download
Чтобы скачать .torrent файл необходима регистрация
Сайт не распространяет и не хранит электронные версии произведений, а лишь предоставляет доступ к создаваемому пользователями каталогу ссылок на торрент-файлы, которые содержат только списки хеш-сумм
[Профиль]  [ЛС] 
 

Pigy

RG Русские сериалы

Стаж: 9 лет 9 месяцев

Сообщений: 2479

Pigy · 18-Май-18 13:17 (спустя 2 дня 21 час, ред. 18-Май-18 13:17)

[Цитировать] 

Отличия от этой раздачи http://1.maintracker.org/forum/viewtopic.php?t=5557316 - нет неотключаемых украинских субтитров, нет логотипа канала и всплывающих надписей, а также длительность серии длиннее на 7 минут. Как вариант можно оставить обе раздачи, учитывая, что в сериях скорее всего разный монтаж, раз такая разница в длительности серии.

Добавлены 3-4 серии.
Добавлены 5-6 серии.
Добавлены 7-8 серии.
[Профиль]  [ЛС] 

Pigy

RG Русские сериалы

Стаж: 9 лет 9 месяцев

Сообщений: 2479

Pigy · 23-Май-18 12:26 (спустя 4 дня, ред. 23-Май-18 12:26)

[Цитировать] 

Добавлены 9-10 серии.
Добавлены 11-12 серии.
[Профиль]  [ЛС] 

serza

Стаж: 9 лет 5 месяцев

Сообщений: 21

serza · 23-Май-18 23:44 (спустя 11 часов)

[Цитировать] 

ждем далее
[Профиль]  [ЛС] 

Pigy

RG Русские сериалы

Стаж: 9 лет 9 месяцев

Сообщений: 2479

Pigy · 24-Май-18 12:11 (спустя 12 часов)

[Цитировать] 

Добавлены 13-14 серии.
[Профиль]  [ЛС] 

serza

Стаж: 9 лет 5 месяцев

Сообщений: 21

serza · 24-Май-18 14:23 (спустя 2 часа 12 мин.)

[Цитировать] 

спасибо!
[Профиль]  [ЛС] 

Pigy

RG Русские сериалы

Стаж: 9 лет 9 месяцев

Сообщений: 2479

Pigy · 25-Май-18 13:18 (спустя 22 часа)

[Цитировать] 

Добавлены 15-16 серии.
[Профиль]  [ЛС] 

Исабо

Стаж: 9 лет 5 месяцев

Сообщений: 258

Исабо · 25-Май-18 13:23 (спустя 5 мин.)

[Цитировать] 

Спасибо за раздачу! Сериал очень интересный!
[Профиль]  [ЛС] 
 
Ответить
Loading...
Error