Адрес РуТрекера для пользователей РФ - 11.MainTracker.org

Расскажи друзьям:  

Пелена / Серии: 1-10 из 10 (Валерий Ибрагимов) [2017, мелодрама, детектив, криминал, WEBRip]

Страницы:  1

Ответить
Автор
Сообщение

Pigy

RG Русские сериалы

Стаж: 10 лет 1 месяц

Сообщений: 3737

Pigy · 06-Июн-18 19:50 (6 месяцев назад, ред. 17-Июн-18 13:33)

Пелена
Год выпуска: 2018
Производство: Киевтелефильм
Жанр: мелодрама, детектив, криминал
Продолжительность: ~00:50:00 серия
Субтитры: нет
Режиссёр: Валерий Ибрагимов
В ролях: Александра Булычёва, Антон Батырев, Андрей Чадов, Валерий Баринов, Игорь Головин, Настя Кербенген, Елизавета Анохина, Владимир Горянский, Ирина Мак, Лев Сомов, Олеся Жураковская, Константин Корецкий, Софья Письман, Алексей Тритенко, Мирослава Филиппович, Ирина Авдеенко, Владимир Гладкий, Сергей Сипливый, Наталия Цыганенко, Владислав Мамчур, Елена Хижная, Наталья Корецкая, Сергей Кучера, Евгений Паперный, Станислав Щёкин
Описание: Оксана – журналистка, специализирующаяся на громких коррупционных делах. Кирилл – следователь по особо тяжким преступлениям, которому эта журналистка изрядно портит жизнь. На первый взгляд, они враги, а на самом деле – супруги на грани развода. Из-за своего расследования Оксана попадает в эпицентр масштабного скандала и окончательно ссорится с мужем. В качестве наказания ей предстоит на пару месяцев залечь на дно, работая корреспондентом местной газеты «Вечерняя Пелена».

Реклама: Нет.
Кино-театр
Все раздачи сериала
Sample
Качество: WEBRip - Files-x
Формат: AVI
Видео кодек: XviD
Аудио кодек: AC3
Видео: 720x400 (1.80:1), 25 fps, XviD build 73 ~1800 kbps avg, 0.248 bit/pixel
Аудио: 48.0 kHz, AC3 Dolby Digital, 2/0 (L,R) ch, ~ 192 kbps
Внимание! Раздача ведётся путём добавления новых серий
Раздача ведётся путём добавления новых серий, при каждом добавлении создаётся новый торрент. Чтобы начать докачку новой серии, пользователям необходимо сделать следующее:
- Остановить скачивание.
- Удалить старый торрент у себя из клиента (старые серии удалять не надо).
- Скачать новый торрент и запустить его у себя в клиенте вместо старого, при этом указать клиенту путь в старую папку куда и должно происходить скачивание новых серий.
Ваш клиент при этом должен произвести хеширование (проверку) старой папки (если не производит сам - помогите ему сделать это), и будет докачивать только те серии которых у вас ещё нет. Старые серии при этом не удаляются, а продолжают раздаваться!
Если вы уже удалили старые серии, то предотвратить повторную закачку старых серий можно, отжав галочку в соответствующих местах при запуске нового торрента. По возможности, желательно не удалять старые серии как можно дольше, чтобы релизер не столько продолжал раздавать старые серии, а смог сконцентрироваться на новых.
MI
General
Complete name : D:\Пелена.2017.WEBRip.Files-x\01.Пелена.2017.WEBRip.Files-x.avi
Format : AVI
Format/Info : Audio Video Interleave
File size : 701 MiB
Duration : 49 min 17 s
Overall bit rate : 1 987 kb/s
Writing application : VirtualDubMod 1.5.10.3 | www.virtualdub-fr.org || (build 2550/release)
Writing library : VirtualDubMod build 2550/release
Video
ID : 0
Format : MPEG-4 Visual
Format profile : Advanced [email protected]
Format settings : BVOP1 / QPel / Custom Matrix
Format settings, BVOP : 1
Format settings, QPel : Yes
Format settings, GMC : No warppoints
Format settings, Matrix : Custom
Codec ID : XVID
Codec ID/Hint : XviD
Duration : 49 min 17 s
Bit rate : 1 785 kb/s
Width : 720 pixels
Height : 400 pixels
Display aspect ratio : 16:9
Frame rate : 25.000 FPS
Color space : YUV
Chroma subsampling : 4:2:0
Bit depth : 8 bits
Scan type : Progressive
Compression mode : Lossy
Bits/(Pixel*Frame) : 0.248
Stream size : 629 MiB (90%)
Writing library : XviD 73
Audio
ID : 1
Format : AC-3
Format/Info : Audio Coding 3
Codec ID : 2000
Duration : 49 min 17 s
Bit rate mode : Constant
Bit rate : 192 kb/s
Channel(s) : 2 channels
Channel positions : Front: L R
Sampling rate : 48.0 kHz
Frame rate : 31.250 FPS (1536 SPF)
Bit depth : 16 bits
Compression mode : Lossy
Stream size : 67.7 MiB (10%)
Alignment : Split accross interleaves
Interleave, duration : 40 ms (1.00 video frame)
Interleave, preload duratio : 500 ms
Service kind : Complete Main
Скриншоты
Download
Чтобы скачать .torrent файл необходима регистрация
Сайт не распространяет и не хранит электронные версии произведений, а лишь предоставляет доступ к создаваемому пользователями каталогу ссылок на торрент-файлы, которые содержат только списки хеш-сумм
[Профиль]  [ЛС] 
 

gasservice

Стаж: 10 месяцев

Сообщений: 269


gasservice · 06-Июн-18 21:24 (спустя 1 час 34 мин.)

[Цитировать] 

да, Киевтелефильм это не А-Медиа
...
кино никакое - просто шлак
[Профиль]  [ЛС] 

Pigy

RG Русские сериалы

Стаж: 10 лет 1 месяц

Сообщений: 3737

Pigy · 14-Июн-18 09:59 (спустя 7 дней, ред. 14-Июн-18 09:59)

[Цитировать] 

Добавлены 5-6 серии.
Добавлены 7-8 серии.
[Профиль]  [ЛС] 

DENIS NIKOLAERVICH

Стаж: 10 лет 4 месяца

Сообщений: 43

DENIS NIKOLAERVICH · 16-Июн-18 18:16 (спустя 2 дня 8 часов)

[Цитировать] 

bobby_b писал(а):
75508324Выложите, пожалуйста, 9-ю серию
скачайте с youtube
[Профиль]  [ЛС] 

dimpok

Стаж: 7 лет 9 месяцев

Сообщений: 69


dimpok · 28-Июн-18 04:38 (спустя 11 дней)

[Цитировать] 

из всех мелодрам которые я пересмотрел это первая более менее а может настрой такой был смотрел с внучкой та аж вищала ей 10 лет
[Профиль]  [ЛС] 

Сладкоежкина

Стаж: 8 лет 3 месяца

Сообщений: 127

Сладкоежкина · 29-Июн-18 07:25 (спустя 1 день 2 часа)

[Цитировать] 

Спасибо за раздачу, досмотрела до конца. Наигранно, все какие-то страшненькие (немного скидка на качество фильма), так много лишнего говорят (прокруточка ). Игра главной героини интересна - рожицы забавно корчить умеет, задорненькая, но откуда такая допотопная одежда - ракурсы - жуть (ни лица, ни фигуры). Чадов играет "на автомате" - просто ему скучно. Очередная сказочная история - повсюду лезть, всех побеждать и ничего тебе за это не будет (всегда под рукой герои-спасители). Поселок городского типа. Муж купил авоську яблок (не суждено за забором нарвать). Все красавцы-мужчины одиноки ( сравнить с нашими деревнями - одни алкаши и тех пересчитать по пальцам). Ну и типа комедийно.
[Профиль]  [ЛС] 

frecords72

Стаж: 10 лет 1 месяц

Сообщений: 497

frecords72 · 05-Дек-18 14:22 (спустя 5 месяцев 6 дней)

[Цитировать] 

Как-то тоскливо смотрится. Не знаю, осилю ли до конца.
[Профиль]  [ЛС] 

kaunt49

Стаж: 9 лет 9 месяцев

Сообщений: 7


kaunt49 · 07-Дек-18 19:48 (спустя 2 дня 5 часов)

[Цитировать] 

Почему Киевтелефильм в Русских сериалах?????
[Профиль]  [ЛС] 
 
Ответить
Loading...
Error