Адрес РуТрекера для пользователей РФ - MainTracker.org

Расскажи друзьям:  

Знакомство / Серии: 1-2 из 2 (Илья Максимов) [2017, детектив, триллер, WEBRip]

Страницы:  1

Ответить
Автор
Сообщение

Pigy

RG Русские сериалы

Стаж: 9 лет 10 месяцев

Сообщений: 2774

Pigy · 13-Июн-18 02:03 (3 месяца 11 дней назад)

Знакомство
Год выпуска: 2017
Производство: Мотор фильм студия
Жанр: детектив, триллер
Продолжительность: ~00:46:00 серия
Субтитры: нет
Режиссёр: Илья Максимов
В ролях: Павел Баршак, Сергей Маковецкий, Агния Кузнецова, Владимир Епифанцев, Яна Середа, Евгений Буслаков, Екатерина Вуличенко, Дмитрий Ермак

Описание: Коля — молодой эгоист, который уже год как бросил работу, чтобы «найти себя», но вместо реального поиска он погружен в виртуальное общение в социальных сетях. Единственный человек, с которым Коля реально, а не виртуально общается и которому доверяет — его старший брат — художник, любимчик отца и любимец женщин. Но в одно ничем не примечательное утро Коля находит брата мёртвым. Полиция считает, что это самоубийство. Отец, находящийся с Колей не в лучших отношениях, уверен, что сына убили.
Несмотря на сложные отношения с отцом и оторванность от реального мира, Коля решает начать собственное расследование и во чтобы то ни стало найти истинного убийцу брата..


Реклама: Нет.
Кинопоиск
Все раздачи сериала
Sample
Качество: WEBRip
Формат: AVI
Видео кодек: XviD
Аудио кодек: AC3
Видео: 720x400 (1.80:1), 25 fps, XviD build 73 ~1700 kbps avg, 0.236 bit/pixel
Аудио: 48.0 kHz, AC3 Dolby Digital, 2/0 (L,R) ch, ~ 192 kbps
MI
General
Complete name : D:\Знакомство 2017 WEBRip\Znakomstvo.(01.seriya.iz.02).2017.avi
Format : AVI
Format/Info : Audio Video Interleave
File size : 624 MiB
Duration : 45 min 59 s
Overall bit rate : 1 897 kb/s
Writing application : VirtualDubMod 1.5.10.3 | www.virtualdub-fr.org || (build 2550/release)
Writing library : VirtualDubMod build 2550/release
Video
ID : 0
Format : MPEG-4 Visual
Format profile : Advanced Simple@L5
Format settings : BVOP2
Format settings, BVOP : 2
Format settings, QPel : No
Format settings, GMC : No warppoints
Format settings, Matrix : Default (MPEG)
Codec ID : XVID
Codec ID/Hint : XviD
Duration : 45 min 59 s
Bit rate : 1 696 kb/s
Width : 720 pixels
Height : 400 pixels
Display aspect ratio : 16:9
Frame rate : 25.000 FPS
Color space : YUV
Chroma subsampling : 4:2:0
Bit depth : 8 bits
Scan type : Progressive
Compression mode : Lossy
Bits/(Pixel*Frame) : 0.236
Stream size : 558 MiB (89%)
Writing library : XviD 73
Audio
ID : 1
Format : AC-3
Format/Info : Audio Coding 3
Codec ID : 2000
Duration : 45 min 59 s
Bit rate mode : Constant
Bit rate : 192 kb/s
Channel(s) : 2 channels
Channel positions : Front: L R
Sampling rate : 48.0 kHz
Frame rate : 31.250 FPS (1536 SPF)
Bit depth : 16 bits
Compression mode : Lossy
Stream size : 63.2 MiB (10%)
Alignment : Split accross interleaves
Interleave, duration : 40 ms (1.00 video frame)
Interleave, preload duratio : 500 ms
Service kind : Complete Main
Скриншоты
Download
Чтобы скачать .torrent файл необходима регистрация
Сайт не распространяет и не хранит электронные версии произведений, а лишь предоставляет доступ к создаваемому пользователями каталогу ссылок на торрент-файлы, которые содержат только списки хеш-сумм
[Профиль]  [ЛС] 
 

Nesterson

Стаж: 9 лет 10 месяцев

Сообщений: 23

Nesterson · 15-Июн-18 21:39 (спустя 2 дня 19 часов, ред. 15-Июн-18 21:39)

[Цитировать] 

Маковецкий, как всегда, на высоте! И Баршак великолепен!
Сериал просто захватил...
[Профиль]  [ЛС] 

grigorii535053

Стаж: 5 лет 10 месяцев

Сообщений: 32


grigorii535053 · 17-Июн-18 14:38 (спустя 1 день 16 часов)

[Цитировать] 

А я Маковецкого обожаю! Спасибо большое за сериал!
[Профиль]  [ЛС] 

igor-palk

Стаж: 9 лет 10 месяцев

Сообщений: 91

igor-palk · 09-Июл-18 09:51 (спустя 21 день)

[Цитировать] 

Замечательный фильм! Фееричный тандем Маковецкого и Баршака. Маковецкий потрясающий актер. Спасибо!
[Профиль]  [ЛС] 

HellDashX

Top User 02

Стаж: 10 лет 11 месяцев

Сообщений: 514

HellDashX · 10-Июл-18 16:06 (спустя 1 день 6 часов)

[Цитировать] 

В Баршака влюбился после сериала Игра. Гениальный актер! Думаю сериал отменный. спасибо!
[Профиль]  [ЛС] 
 
Ответить
Loading...
Error