Физрук / Сезон 1-4 / Серии: 1-77 из 77 (Сергей Сенцов, Фёдор Стуков, Дмитрий Губарев, Игорь Волошин) [2014-2017, комедия, WEBRip 1080p]

Страницы:  1

Ответить
Автор
Сообщение

Pigy

RG Русские сериалы

Стаж: 10 лет

Сообщений: 3471

Pigy · 13-Июн-18 13:23 (5 месяцев 4 дня назад)

Физрук
Год выпуска: 2017
Производство: Good Story Media
Жанр: комедия
Продолжительность: ~00:24:00 серия
Субтитры: нет
Режиссёр: Сергей Сенцов, Фёдор Стуков, Дмитрий Губарев, Игорь Волошин
В ролях: Дмитрий Нагиев, Александр Гордон, Полина Гренц, Анастасия Панина, Владимир Сычёв, Данила Вахрушев, Андрей Крыжний, Артур Сопельник, Оксана Сидоренко, Карина Мишулина, Роман Индык, Елена Муравьёва, Евгений Кулаков, Виктория Клинкова, Ян Цапник, Екатерина Айсина, Наталья Коренная, Варвара Богданова, Мария Киселева, Иван Мудров, Дмитрий Гогу, Владимир Жеребцов, Владимир Епископосян, Сергей Серов, Сергей Журавлёв, Любовь Германова, Борис Клюев, Дмитрий Власкин

Описание: Это история о столкновении двух времен: «лихих» 90-х и «стабильных» десятых. Главный герой Фома всю жизнь был «правой рукой» влиятельного человека с полукриминальным прошлым. Когда «хозяин» выгнал его на пенсию, Фома решил любым способом вернуться обратно. Сначала казалось, что все будет просто: подобраться к ребенку бывшего босса, прогнуться, напомнить о себе и вернуться в дело. Но план Фомы рушится в первый же день. В школе ему приходится задержаться надолго. Попав в абсолютно незнакомый мир детей и учителей, который кардинально отличается от привычного ему круга, Фома не только меняет свою жизнь, но и меняется сам.

Реклама: Нет.

Все раздачи сериала
Sample
Качество: WEBRip 1080p - Nikolspup
Формат: MKV
Видео кодек: H.264
Аудио кодек: AC3
Видео: MPEG4 AVC Video, H264, 16:9, 1920x1080, 25 fps, ~4000 kbps, 0.077 bit/pixel
Аудио: AC3 Dolby Digital, 48.0 kHz, 2/0 (L,R) ch, 192 kbps
MI
General
Unique ID : 212909927378692278129728993310235616820 (0xA02CF5E0AE0F5104B8D5783A435EE634)
Complete name : J:\Fizruk.S.01-04.2014-2017.WEB-DL.(1080p).Nikolspup\Fizruk.S.01.2014.WEB-DL.(1080p).Nikolspup\Fizruk.S.01.(01.seriya.iz.20).2014.WEB-DL.(1080p).Nikolspup.mkv
Format : Matroska
Format version : Version 4 / Version 2
File size : 700 MiB
Duration : 23 min 18 s
Overall bit rate mode : Variable
Overall bit rate : 4 200 kb/s
Encoded date : UTC 2018-06-02 07:03:29
Writing application : mkvmerge v7.8.0 ('River Man') 32bit built on Mar 27 2015 16:18:02
Writing library : libebml v1.3.1 + libmatroska v1.4.2
Video
ID : 1
Format : AVC
Format/Info : Advanced Video Codec
Format profile : [email protected]
Format settings : CABAC / 3 Ref Frames
Format settings, CABAC : Yes
Format settings, ReFrames : 3 frames
Codec ID : V_MPEG4/ISO/AVC
Duration : 23 min 18 s
Bit rate mode : Variable
Bit rate : 4 006 kb/s
Maximum bit rate : 40.0 Mb/s
Width : 1 920 pixels
Height : 1 080 pixels
Display aspect ratio : 16:9
Frame rate mode : Constant
Frame rate : 25.000 FPS
Color space : YUV
Chroma subsampling : 4:2:0
Bit depth : 8 bits
Scan type : Progressive
Bits/(Pixel*Frame) : 0.077
Stream size : 668 MiB (95%)
Default : Yes
Forced : No
Color range : Limited
Color primaries : BT.709
Transfer characteristics : BT.709
Matrix coefficients : BT.709
Audio
ID : 2
Format : AC-3
Format/Info : Audio Coding 3
Codec ID : A_AC3
Duration : 23 min 18 s
Bit rate mode : Constant
Bit rate : 192 kb/s
Channel(s) : 2 channels
Channel positions : Front: L R
Sampling rate : 48.0 kHz
Frame rate : 31.250 FPS (1536 SPF)
Bit depth : 16 bits
Compression mode : Lossy
Stream size : 32.0 MiB (5%)
Language : Russian
Service kind : Complete Main
Default : Yes
Forced : No
Скриншоты
Download
Чтобы скачать .torrent файл необходима регистрация
Сайт не распространяет и не хранит электронные версии произведений, а лишь предоставляет доступ к создаваемому пользователями каталогу ссылок на торрент-файлы, которые содержат только списки хеш-сумм
[Профиль]  [ЛС] 
 

bot · 11-Июл-18 16:43 (спустя 28 дней)

Тема была перенесена из форума Русские сериалы в форум Ольга / Физрук
Сударыня
 

Kotzadrot1212

Стаж: 5 лет 9 месяцев

Сообщений: 4


Kotzadrot1212 · 09-Авг-18 00:38 (спустя 1 месяц 25 дней)

[Цитировать] 

а почему из сериала куски вырезаны во втором сезоне ?
[Профиль]  [ЛС] 

qp02

Стаж: 8 лет 10 месяцев

Сообщений: 28

qp02 · 14-Окт-18 18:37 (спустя 2 месяца 5 дней)

[Цитировать] 

Благодарю!
[Профиль]  [ЛС] 

KoT-EWE

Стаж: 11 лет 4 месяца

Сообщений: 43

KoT-EWE · 14-Окт-18 20:40 (спустя 2 часа 2 мин.)

[Цитировать] 

Kotzadrot1212 писал(а):
75784524а почему из сериала куски вырезаны во втором сезоне ?
какие куски были вырезаны?
[Профиль]  [ЛС] 

gogenovichh

Стаж: 9 лет 5 месяцев

Сообщений: 191


gogenovichh · 28-Окт-18 21:05 (спустя 14 дней)

[Цитировать] 

25.10.18 сериал передумали завершать и продлили на 5-й сезон. Ждем в 2019
[Профиль]  [ЛС] 
 
Ответить
Loading...
Error