Деффчонки / Сезон: 6 / Серии: 1-24 из 24 (Сергей Корягин, Нигина Сайфуллаева, Ольга Френкель) [2018, Ситком, комедия, SATRip]

Страницы:  1

Ответить
Автор
Сообщение

Сибиряк777

Top Seed 05* 640r

Стаж: 10 лет 1 месяц

Сообщений: 2964

Сибиряк777 · 13-Авг-18 14:58 (3 месяца 2 дня назад, ред. 30-Авг-18 23:10)

Деффчонки

Год выпуска: 2018
Производство: Киноконцерн "Косфильм"
Жанр: Ситком, комедия
Продолжительность: 00:26:00
Субтитры: нет
Режиссёр: Сергей Корягин, Нигина Сайфуллаева, Ольга Френкель
В ролях: Галина Боб, Таисия Вилкова, Анастасия Денисова, Полина Максимова, Алексей Воробьёв, Родион Юрин, Тимур Боканча, Александр Серов-Останкинский, Руслан Ягудин, Софья Урицкая, Наталья Унгард, Альбина Евтушевская, Андрис Лиелайс, Александр Горшков, Виталий Евдокимов, Алексей Паламарчук, Антон Аносов, Ярослав Рось, Александр Касаткин, Ольга Дибцева, Алёна Водонаева, Алёна Чехова, Ирина Гавра, Марина Барсукова и др.
Описание: Деффчонки 6 сезон - продолжение истории о четырех подругах, приехавших в поисках лучшей жизни из Саратова в Москву. В прошлом сезоне с ними произошли значительные перемены, даже свадьба была. Теперь девушки повзрослели, но им также хочется обыкновенного женского счастья. На протяжении пяти предыдущих сезонов Пална, Лёля и Бобылыч мечтали о красивой жизни в Москве… а в итоге возвращаются в Саратов… Почему? Так вышло! Но наши деффчонки всегда на позитиве, где бы не оказались. Эпичные фейлы и угарные ситуации, огромные и бессмысленные тараканы в голове, которые не спешат разбегаться, любовная лихорадка и ответы на вечные женские вопросы
Сэмпл: http://multi-up.com/1206167
Качество: SATRip / 25Kuzmich
Формат: AVI
Видео кодек: XviD
Аудио кодек: MP3
Видео: 720x400 (16:9), 25.000 fps, XviD, 1649 Kbps, 0.22 Bits/Pixel
Аудио: 48 kHz, MP3, 2 ch, 192 Kbps
Реклама: Нет
MI
General
Complete name : Downloads\Deffchonki.6.sezon.XviD.SATRip.25Kuzmich
Format : AVI
Format/Info : Audio Video Interleave
File size : 344 MiB
Duration : 26mn 0s
Overall bit rate : 1 850 Kbps
Writing application : VirtualDubMod 1.5.10.3 (build 2550/release)
Writing library : VirtualDubMod build 2550/release
Video #0
ID : 0
Format : MPEG-4 Visual
Format profile : Advanced [email protected]
Format settings, BVOP : 1
Format settings, QPel : No
Format settings, GMC : No warppoints
Format settings, Matrix : Custom
Codec ID : XVID
Codec ID/Hint : XviD
Duration : 26mn 0s
Bit rate : 1 649 Kbps
Width : 720 pixels
Height : 400 pixels
Display aspect ratio : 16:9
Frame rate : 25.000 fps
Color space : YUV
Chroma subsampling : 4:2:0
Bit depth : 8 bits
Scan type : Progressive
Compression mode : Lossy
Bits/(Pixel*Frame) : 0.229
Stream size : 307 MiB (89%)
Writing library : XviD 1.2.1 (UTC 2008-12-04)
Audio #1
ID : 1
Format : MPEG Audio
Format version : Version 1
Format profile : Layer 3
Mode : Joint stereo
Codec ID : 55
Codec ID/Hint : MP3
Duration : 26mn 0s
Bit rate mode : Constant
Bit rate : 192 Kbps
Channel(s) : 2 channels
Sampling rate : 48.0 KHz
Compression mode : Lossy
Stream size : 35.7 MiB (10%)
Alignment : Aligned on interleaves
Interleave, duration : 40 ms (1.00 video frame)
Interleave, preload duration : 504 ms
Writing library : LAME3.99r
Encoding settings : -m j -V 4 -q 2 -lowpass 18.6 -b 192
Скриншоты
Внимание! Раздача ведётся путём добавления новых серий:
(1) остановить скачивание,
(2) удалить старый торрент у себя из клиента (старые серии удалять не надо),
(3) скачать новый торрент и запустить его у себя в клиенте вместо старого, при этом указать клиенту путь в старую папку куда и должно происходить скачивание новых серий.
Ваш клиент при этом должен произвести хеширование (проверку) старой папки (если не производит сам - помогите ему сделать это), и будет докачивать только те серии которых у вас ещё нет. Старые серии при этом не удаляются, а продолжают раздаваться!
Eсли вы уже удалили старые серии, то предотвратить повторную закачку старых серий можно, отжав галочку в соответсвующих местах при запуске нового торрента. По возможности, желательно не удалять старые серии как можно дольше чтобы релизёр не столько продолжал раздавать старые серии, а смог сконцентрироваться на новых
.
Предыдущие и альтернативные раздачи
Download
Чтобы скачать .torrent файл необходима регистрация
Сайт не распространяет и не хранит электронные версии произведений, а лишь предоставляет доступ к создаваемому пользователями каталогу ссылок на торрент-файлы, которые содержат только списки хеш-сумм
[Профиль]  [ЛС] 
 

Сибиряк777

Top Seed 05* 640r

Стаж: 10 лет 1 месяц

Сообщений: 2964

Сибиряк777 · 21-Авг-18 23:45 (спустя 8 дней)

[Цитировать] 

UP
[Профиль]  [ЛС] 

Сибиряк777

Top Seed 05* 640r

Стаж: 10 лет 1 месяц

Сообщений: 2964

Сибиряк777 · 28-Авг-18 23:36 (спустя 6 дней)

[Цитировать] 

UP
+21
[Профиль]  [ЛС] 

erd_torrent

Стаж: 9 лет 2 месяца

Сообщений: 21


erd_torrent · 30-Авг-18 21:54 (спустя 1 день 22 часа)

[Цитировать] 

Что то фигня какая то. На порядок слабее предыдущих сезонов
[Профиль]  [ЛС] 

Сибиряк777

Top Seed 05* 640r

Стаж: 10 лет 1 месяц

Сообщений: 2964

Сибиряк777 · 30-Авг-18 23:12 (спустя 1 час 18 мин.)

[Цитировать] 

erd_torrent писал(а):
75884925Что то фигня какая то. На порядок слабее предыдущих сезонов
Ну тык 6-ой сезон всё таки, сценаристы уже выдохлись. Пора что нибудь новенькое придумать, а этот на покой отправлять.


+22, +23, +24
Все серии
[Профиль]  [ЛС] 

erd_torrent

Стаж: 9 лет 2 месяца

Сообщений: 21


erd_torrent · 04-Сен-18 17:41 (спустя 4 дня)

[Цитировать] 

Спасибо!!!
[Профиль]  [ЛС] 

John 54 Cena

Стаж: 5 лет 9 месяцев

Сообщений: 10

John 54 Cena · 08-Ноя-18 10:45 (спустя 2 месяца 3 дня)

[Цитировать] 

Спасибо за труды!!!
[Профиль]  [ЛС] 
 
Ответить
Loading...
Error